<?xml version="1.0" standalone="no"?>
<!DOCTYPE svg PUBLIC "-//W3C//DTD SVG 1.1//EN" "http://www.w3.org/Graphics/SVG/1.1/DTD/svg11.dtd" >
<svg xmlns="http://www.w3.org/2000/svg" xmlns:xlink="http://www.w3.org/1999/xlink" version="1.1">
<metadata>
Created by FontForge 20201107 at Tue Apr 22 17:46:00 2025
 By 
Copyright (c) 2014 by Abjad / Ali Almasri. All rights reserved.
</metadata>
<defs>
<font id="Swissra-Normal" horiz-adv-x="0" >
  <font-face 
    font-family="Swissra-Normal"
    font-weight="400"
    font-stretch="normal"
    units-per-em="2048"
    panose-1="1 0 0 0 0 0 0 0 0 0"
    ascent="1360"
    descent="-688"
    bbox="-330 -1128 3215 2232"
    underline-thickness="49"
    underline-position="-124"
    unicode-range="U+000D-FEFC"
  />
<missing-glyph horiz-adv-x="1021" 
d="M1022 1432v-1432h-1022v1432h1022zM922 98v1231h-824v-1231h824zM449 467q0 2 -1.5 7.5t-1.5 7.5q-2 12 -2 18q0 26 1 40q1 16 5 43q2 14 8 42q4 16 11 37q16 33 51 70q54 56 64 68q33 39 54 68q24 34 24 76q0 34 -12 64q-13 34 -30 54q-17 21 -48 38q-25 14 -62 14
q-42 0 -70 -15q-27 -14 -48 -43q-18 -25 -31 -62q-10 -28 -15 -68l-98 14q6 61 24 110q17 48 52 87q31 36 80 57q46 20 112 20q59 0 102 -20q47 -22 77 -55q32 -35 50 -83q19 -51 19 -104q0 -50 -13 -86t-34 -66q-22 -31 -46 -54q-32 -30 -49 -45q-21 -18 -42 -43
q-20 -24 -27 -48q-4 -10 -7 -31q-2 -14 -4 -40q-1 -14 -1 -41v-31h-92zM442 233v134h113v-134h-113z" />
    <glyph glyph-name="uniFEF5" unicode="&#xfedf;&#xfe82;" horiz-adv-x="1290" arabic-form="isolated" 
d="M479 166h506v1298h172v-1464h-1116v166h266v919h172v-919zM250 1442q32 0 64 -9t63 -20q20 -7 62 -19q35 -10 63 -10q86 0 86 64h65q0 -73 -41 -116q-40 -42 -100 -42q-33 0 -65 9q-33 9 -62 21q-17 7 -61 20q-33 10 -64 10q-86 0 -86 -66h-65q0 73 41 116q41 42 100 42z
" />
    <glyph glyph-name="uniFEF6" unicode="&#xfee0;&#xfe82;" horiz-adv-x="1472" arabic-form="final" 
d="M1391 0q-46 0 -89 14q-46 15 -87 39q-36 21 -70 57q-31 32 -45 68q-46 -91 -128 -135q-80 -43 -171 -43h-760v166h266v919h172v-919h324q71 0 121 46q51 46 51 159v1093h172v-1022q0 -62 19 -112t53 -87t77 -57t95 -20h82q17 0 29 -4q14 -5 14 -25v-114q0 -23 -43 -23
h-82zM266 1454q34 0 65 -9q26 -8 62 -20q16 -5 63 -19q31 -9 62 -9q86 0 86 63h66q0 -72 -41 -115q-41 -42 -101 -42q-33 0 -64 9q-45 13 -63 20q-27 11 -61 21q-30 9 -64 9q-86 0 -86 -66h-65q0 73 41 116q41 42 100 42z" />
    <glyph glyph-name="uniFEF7" unicode="&#xfedf;&#xfe84;" horiz-adv-x="1290" arabic-form="isolated" 
d="M479 166h506v1298h172v-1464h-1116v166h266v919h172v-919zM225 1436h78v6q-15 16 -27 44q-12 27 -12 56q0 66 39 108t117 42q60 0 103 -36q45 -37 46 -110h-71q-1 28 -23 53t-55 25q-31 0 -53 -23q-23 -25 -23 -69q0 -48 26 -72t62 -24h148v-74h-355v74z" />
    <glyph glyph-name="uniFEF8" unicode="&#xfee0;&#xfe84;" horiz-adv-x="1472" arabic-form="final" 
d="M1391 0q-46 0 -89 14q-46 15 -87 39q-36 21 -70 57q-31 32 -45 68q-46 -91 -128 -135q-80 -43 -171 -43h-760v166h266v919h172v-919h324q71 0 121 46q51 46 51 159v1093h172v-1022q0 -62 19 -112t53 -87t77 -57t95 -20h82q17 0 29 -4q14 -5 14 -25v-114q0 -23 -43 -23
h-82zM233 1462h78v6q-13 14 -26 44q-13 29 -13 57q0 65 39 107t117 42q60 0 103 -36q46 -38 47 -109h-72q-1 28 -23 53t-55 25q-30 0 -53 -24q-23 -25 -23 -68q0 -48 26 -72q27 -25 62 -25h148v-73h-355v73z" />
    <glyph glyph-name="uniFEF9" unicode="&#xfedf;&#xfe88;" horiz-adv-x="1290" arabic-form="isolated" 
d="M479 166h506v1298h172v-1464h-1116v166h266v919h172v-919zM225 -483h78v6q-15 16 -27 44q-12 27 -12 56q0 66 39 108t117 42q60 0 103 -36q45 -37 46 -110h-71q-2 29 -23 54q-21 24 -55 24q-31 0 -53 -23q-23 -25 -23 -69q0 -48 26 -72t62 -24h148v-74h-355v74z" />
    <glyph glyph-name="uniFEFA" unicode="&#xfee0;&#xfe88;" horiz-adv-x="1472" arabic-form="final" 
d="M1391 0q-46 0 -89 14q-46 15 -87 39q-36 21 -70 57q-31 32 -45 68q-46 -91 -128 -135q-80 -43 -171 -43h-760v166h266v919h172v-919h324q71 0 121 46q51 46 51 159v1093h172v-1022q0 -62 19 -112t53 -87t77 -57t95 -20h82q17 0 29 -4q14 -5 14 -25v-114q0 -23 -43 -23
h-82zM217 -455h78v6q-14 15 -27 45q-12 27 -12 56q0 65 39 107t117 42q61 0 103 -35q45 -37 46 -110h-72q-2 30 -22 53q-22 25 -55 25q-32 0 -54 -24q-22 -23 -22 -68q0 -48 25 -72q27 -25 63 -25h147v-73h-354v73z" />
    <glyph glyph-name="uniFEFB" unicode="&#xfedf;&#xfe8e;" horiz-adv-x="1290" arabic-form="isolated" 
d="M479 166h506v1298h172v-1464h-1116v166h266v919h172v-919z" />
    <glyph glyph-name="uniFEFC" unicode="&#xfee0;&#xfe8e;" horiz-adv-x="1472" arabic-form="final" 
d="M1391 0q-46 0 -89 14q-46 15 -87 39q-36 21 -70 57q-31 32 -45 68q-46 -91 -128 -135q-80 -43 -171 -43h-760v166h266v919h172v-919h324q71 0 121 46q51 46 51 159v1093h172v-1022q0 -62 19 -112t53 -87t77 -57t95 -20h82q17 0 29 -4q14 -5 14 -25v-114q0 -23 -43 -23
h-82z" />
    <glyph glyph-name="uni06440671" unicode="&#xfedf;&#xfb51;" horiz-adv-x="1290" 
d="M487 1477q81 0 108 -44q28 -45 28 -110v-106h-420v73h57q15 38 40 70q22 28 56 59q30 27 65 42q37 16 66 16zM543 1290v33q0 34 -21 55t-49 21q-48 0 -79 -37q-32 -38 -48 -72h197zM479 166h506v1298h172v-1464h-1116v166h266v919h172v-919z" />
    <glyph glyph-name="uni06440671.fina" unicode="&#xfee0;&#xfb51;" horiz-adv-x="1472" 
d="M483 1532q81 0 108 -44t27 -110v-106h-419v74h57q14 36 40 69q24 32 56 60q30 27 65 42t66 15zM539 1346v32q0 35 -21 56q-20 20 -49 20q-48 0 -79 -37q-33 -39 -48 -71h197zM1391 0q-47 0 -90 14q-44 14 -86 39q-36 21 -70 57q-31 32 -45 68q-46 -91 -128 -135
q-80 -43 -171 -43h-760v166h266v919h172v-919h324q71 0 121 46q51 46 51 159v1093h172v-1022q0 -62 19 -112t53 -87t77 -57t95 -20h82q17 0 29 -4q14 -5 14 -25v-114q0 -23 -43 -23h-82z" />
    <glyph glyph-name="uni0621" unicode="&#x621;" horiz-adv-x="1081" arabic-form="isolated" 
d="M61 0v166h236v14q-19 17 -38 46q-24 36 -40 72q-20 46 -32 86q-13 45 -13 89q0 90 32 168q31 75 87 128q55 53 129 81q75 29 160 29q172 0 271 -102q100 -103 110 -288h-142q-2 46 -21 86q-20 42 -51 73q-32 32 -75 50q-46 19 -92 19q-98 0 -164 -63t-66 -181
q0 -59 18 -115t50 -98q33 -44 78 -69q44 -25 98 -25h393v-166h-928z" />
    <glyph glyph-name="uni0622" unicode="&#x622;" horiz-adv-x="440" arabic-form="isolated" 
d="M90 1817q30 0 65 -10q42 -12 62 -19q31 -11 63 -20t62 -9q86 0 86 64h66q0 -73 -41 -116q-40 -42 -101 -42q-32 0 -64 9q-37 10 -63 21q-17 7 -61 20q-30 9 -64 9q-86 0 -86 -65h-65q0 73 41 116q40 42 100 42zM133 0v1464h174v-1464h-174z" />
    <glyph glyph-name="uni0623" unicode="&#x623;" horiz-adv-x="440" arabic-form="isolated" 
d="M49 1679h78v7q-15 16 -27 44q-12 27 -12 56q0 65 39 107t117 42q61 0 103 -35q45 -37 46 -110h-71q-1 28 -23 53t-55 25q-32 0 -54 -24q-22 -23 -22 -68q0 -48 26 -72q27 -25 62 -25h147v-73h-354v73zM133 0v1464h174v-1464h-174z" />
    <glyph glyph-name="uni0624" unicode="&#x624;" horiz-adv-x="1087" arabic-form="isolated" 
d="M100 1356h78v6q-13 14 -26 44q-13 29 -13 56q0 66 39 108t117 42q59 0 103 -36q45 -37 46 -110h-71q-2 29 -23 54q-21 24 -55 24q-31 0 -53 -23q-23 -25 -23 -69q0 -48 26 -72q25 -24 62 -24h148v-74h-355v74zM381 -324q83 0 149 15q70 16 116 51q51 39 84 99
q32 58 54 159h-239q-110 0 -193 37q-85 38 -141 101q-58 66 -88 152q-31 90 -31 189q0 103 24 198q24 96 77 168q54 74 139 117q86 44 213 44q126 0 213 -41t139 -120q53 -79 76 -193q22 -111 22 -259q0 -255 -32 -418q-33 -166 -104 -271q-71 -104 -181 -147
q-112 -44 -266 -44q-47 0 -74 4q-35 5 -53 10q-19 6 -41 16v166q26 -14 65 -23q42 -10 72 -10zM815 403q0 222 -67 326q-68 105 -201 105q-71 0 -120 -27t-84 -74q-33 -44 -50 -111q-17 -66 -17 -143q0 -313 269 -313h262q4 52 6 112q2 78 2 125z" />
    <glyph glyph-name="uni0625" unicode="&#x625;" horiz-adv-x="440" arabic-form="isolated" 
d="M74 -455h78v6q-14 15 -27 45q-12 27 -12 56q0 65 39 107t116 42q62 0 104 -35q45 -37 46 -110h-72q-2 30 -22 53q-22 25 -56 25q-30 0 -53 -24q-22 -23 -22 -68q0 -48 25 -72q27 -25 63 -25h147v-73h-354v73zM133 0v1464h174v-1464h-174z" />
    <glyph glyph-name="uni0626" unicode="&#x626;" horiz-adv-x="1595" arabic-form="isolated" 
d="M78 748h78v6q-15 16 -27 44q-12 27 -12 56q0 66 39 108t116 42q60 0 104 -36q45 -37 46 -110h-72q-2 30 -22 53q-22 25 -56 25q-30 0 -53 -24q-22 -23 -22 -68q0 -48 25 -72q26 -24 63 -24h147v-74h-354v74zM809 -322q107 0 202 15q98 16 166 46q71 31 111 81
q41 50 41 117q0 40 -14 65q-16 28 -51 48q-40 22 -102 44q-107 37 -163 56q-165 52 -254 158q-88 104 -88 247q0 82 22 167q20 79 71 143q50 63 130 102q81 39 197 39q179 0 282 -111t118 -315h-154q-16 133 -83 197q-66 63 -163 63q-110 0 -178 -73t-68 -212q0 -53 24 -93
q24 -41 68 -71q43 -30 108 -57q48 -20 145 -53q173 -59 250 -140q77 -80 77 -204q0 -87 -41 -166q-41 -80 -126 -136q-86 -57 -216 -90q-127 -32 -313 -32q-201 0 -342 50q-137 49 -226 145q-87 94 -126 232q-40 138 -41 306h164q0 -175 38 -283q39 -110 113 -174
q73 -63 180 -87t242 -24z" />
    <glyph glyph-name="uni0627" unicode="&#x627;" horiz-adv-x="440" arabic-form="isolated" 
d="M133 0v1464h174v-1464h-174z" />
    <glyph glyph-name="uni0628" unicode="&#x628;" horiz-adv-x="1986" arabic-form="isolated" 
d="M956 -195h174v-239h-174v239zM1679 166v706h174v-872h-1323q-84 0 -165 25q-80 25 -137 80t-92 147q-34 89 -34 221v137h160v-139q0 -157 69 -231t199 -74h1149z" />
    <glyph glyph-name="uni0629" unicode="&#x629;" horiz-adv-x="1138" arabic-form="isolated" 
d="M696 1464h174v-239h-174v239zM346 1464h174v-239h-174v239zM569 -23q-113 0 -203 38q-89 38 -150 106t-92 162q-32 96 -32 209q0 111 32 207q32 95 92 163q61 68 150 106q90 38 203 38q114 0 204 -38q89 -38 150 -106q60 -68 92 -163q32 -96 32 -207q0 -113 -32 -209
q-31 -94 -92 -162t-150 -106q-90 -38 -204 -38zM569 147q74 0 132 26q56 25 94 71q37 44 55 108q18 63 18 140q0 76 -18 139q-18 64 -55 108q-38 46 -94 71q-58 26 -132 26t-132 -26q-54 -24 -93 -71q-37 -44 -55 -108q-19 -67 -19 -139q0 -74 19 -140q18 -64 55 -108
q39 -47 93 -71q58 -26 132 -26z" />
    <glyph glyph-name="uni062A" unicode="&#x62a;" horiz-adv-x="1986" arabic-form="isolated" 
d="M1061 1286h174v-239h-174v239zM711 1286h174v-239h-174v239zM1679 166v706h174v-872h-1323q-84 0 -165 25q-80 25 -137 80t-92 147q-34 89 -34 221v137h160v-139q0 -157 69 -231t199 -74h1149z" />
    <glyph glyph-name="uni062B" unicode="&#x62b;" horiz-adv-x="1986" arabic-form="isolated" 
d="M901 1599h174v-239h-174v239zM1075 1284h174v-240h-174v240zM725 1284h174v-240h-174v240zM1679 166v706h174v-872h-1323q-84 0 -165 25q-80 25 -137 80t-92 147q-34 89 -34 221v137h160v-139q0 -157 69 -231t199 -74h1149z" />
    <glyph glyph-name="uni062C" unicode="&#x62c;" horiz-adv-x="1366" arabic-form="isolated" 
d="M635 -135h158v-215h-158v215zM512 166h541q-7 19 -13 45q-2 7 -8 33t-9 41q-11 49 -17 87q-3 16 -8 43.5t-7 39.5q-30 193 -118 289t-199 96q-145 0 -234 -79q-90 -80 -114 -208h-168q7 89 49 174q39 80 108 144q67 63 159 99t200 36t193 -43t147 -120t99 -180t54 -227
q15 -110 27 -181q11 -63 23 -113q14 -58 18 -74q9 -35 18 -68h-718q-139 0 -222 -66q-82 -66 -82 -159q0 -69 20 -131q19 -58 66 -131h-159q-44 56 -69 116q-28 68 -28 152q0 78 27 147q28 72 82 123q59 55 140 84q88 31 202 31z" />
    <glyph glyph-name="uni062D" unicode="&#x62d;" horiz-adv-x="1366" arabic-form="isolated" 
d="M512 166h541q-7 19 -13 45q-2 7 -8 33t-9 41q-11 49 -17 87q-3 16 -8 43.5t-7 39.5q-30 193 -118 289t-199 96q-145 0 -234 -79q-90 -80 -114 -208h-168q7 89 49 174q39 80 108 144q67 63 159 99t200 36t193 -43t147 -120t99 -180t54 -227q15 -110 27 -181
q11 -63 23 -113q14 -58 18 -74q9 -35 18 -68h-718q-139 0 -222 -66q-82 -66 -82 -159q0 -69 20 -131q19 -58 66 -131h-159q-44 56 -69 116q-28 68 -28 152q0 78 27 147q28 72 82 123q59 55 140 84q88 31 202 31z" />
    <glyph glyph-name="uni062E" unicode="&#x62e;" horiz-adv-x="1366" arabic-form="isolated" 
d="M569 1464h174v-239h-174v239zM512 166h541q-7 19 -13 45q-2 7 -8 33t-9 41q-11 49 -17 87q-3 16 -8 43.5t-7 39.5q-30 193 -118 289t-199 96q-145 0 -234 -79q-90 -80 -114 -208h-168q7 89 49 174q39 80 108 144q67 63 159 99t200 36t193 -43t147 -120t99 -180t54 -227
q15 -110 27 -181q11 -63 23 -113q14 -58 18 -74q9 -35 18 -68h-718q-139 0 -222 -66q-82 -66 -82 -159q0 -69 20 -131q19 -58 66 -131h-159q-44 56 -69 116q-28 68 -28 152q0 78 27 147q28 72 82 123q59 55 140 84q88 31 202 31z" />
    <glyph glyph-name="uni062F" unicode="&#x62f;" horiz-adv-x="980" arabic-form="isolated" 
d="M102 0v166h594v260q0 78 -17 143q-19 72 -56 122q-39 53 -99 84q-61 32 -143 32h-188v164h157q109 0 207 -31q94 -30 164 -97q69 -66 108 -171t39 -252v-420h-766z" />
    <glyph glyph-name="uni0630" unicode="&#x630;" horiz-adv-x="980" arabic-form="isolated" 
d="M258 1466h174v-239h-174v239zM102 0v166h594v260q0 78 -17 143q-19 72 -56 122q-39 53 -99 84q-61 32 -143 32h-188v164h157q109 0 207 -31q94 -30 164 -97q69 -66 108 -171t39 -252v-420h-766z" />
    <glyph glyph-name="uni0631" unicode="&#x631;" horiz-adv-x="655" arabic-form="isolated" 
d="M174 -319q44 0 75 15t54 51q22 35 34 95q11 55 11 150v880h174v-880q0 -235 -73 -357t-250 -122q-40 0 -73 5q-26 4 -48 13q-22 7 -37 18v166q62 -34 133 -34z" />
    <glyph glyph-name="uni0632" unicode="&#x632;" horiz-adv-x="681" arabic-form="isolated" 
d="M348 1464h174v-239h-174v239zM174 -319q44 0 75 15t54 51q22 35 34 95q11 55 11 150v880h174v-880q0 -235 -73 -357t-250 -122q-40 0 -73 5q-26 4 -48 13q-22 7 -37 18v166q62 -34 133 -34z" />
    <glyph glyph-name="uni0633" unicode="&#x633;" horiz-adv-x="2908" arabic-form="isolated" 
d="M778 -487q-340 0 -523 223t-183 659v135h170v-135q0 -361 127 -537q127 -177 405 -177q141 0 248 36q110 37 186 122q77 86 117 221q41 138 41 335v391h172v-421q0 -109 54 -157t161 -48t159 48t52 157v464h174v-458q0 -111 50 -158t122 -47h289v706h176v-872h-463
q-27 0 -60 10t-67 30q-31 18 -58 50q-26 31 -34 72h-4q-47 -86 -130 -127q-84 -41 -183 -41q-39 0 -77 7q-41 7 -75 24q-36 17 -62 42q-28 26 -42 62q-22 -126 -73 -242q-49 -111 -139 -195q-89 -83 -219 -131q-131 -48 -311 -48z" />
    <glyph glyph-name="uni0634" unicode="&#x634;" horiz-adv-x="2908" arabic-form="isolated" 
d="M1978 1782h174v-240h-174v240zM2152 1466h175v-239h-175v239zM1802 1466h174v-239h-174v239zM778 -487q-340 0 -523 223t-183 659v135h170v-135q0 -361 127 -537q127 -177 405 -177q141 0 248 36q110 37 186 122q77 86 117 221q41 138 41 335v391h172v-421
q0 -109 54 -157t161 -48t159 48t52 157v464h174v-458q0 -111 50 -158t122 -47h289v706h176v-872h-463q-27 0 -60 10t-67 30q-31 18 -58 50q-26 31 -34 72h-4q-47 -86 -130 -127q-84 -41 -183 -41q-39 0 -77 7q-41 7 -75 24q-36 17 -62 42q-28 26 -42 62q-22 -126 -73 -242
q-49 -111 -139 -195q-89 -83 -219 -131q-131 -48 -311 -48z" />
    <glyph glyph-name="uni0635" unicode="&#x635;" horiz-adv-x="2967" arabic-form="isolated" 
d="M778 -487q-340 0 -523 223t-183 659v133h172v-133q0 -358 127 -536t403 -178q138 0 248 43t186 131q77 89 117 223q41 137 41 317v420h172v-416h10q61 91 148 194q85 100 185 181q101 82 219 134q120 53 249 53q235 0 371 -128q135 -127 135 -376v-457h-1370
q-33 -101 -90 -190q-56 -87 -144 -155q-89 -69 -202 -105q-115 -37 -271 -37zM2341 795q-81 0 -161 -37q-87 -40 -158 -96q-76 -60 -147 -132q-74 -75 -128 -141q-47 -57 -100 -130q-43 -60 -66 -93h1104v297q0 79 -28 144q-28 64 -73 104q-47 41 -110 62q-66 22 -133 22z
" />
    <glyph glyph-name="uni0636" unicode="&#x636;" horiz-adv-x="2967" arabic-form="isolated" 
d="M1690 1464h174v-239h-174v239zM778 -487q-340 0 -523 223t-183 659v133h172v-133q0 -358 127 -536t403 -178q138 0 248 43t186 131q77 89 117 223q41 137 41 317v420h172v-416h10q61 91 148 194q85 100 185 181q101 82 219 134q120 53 249 53q235 0 371 -128
q135 -127 135 -376v-457h-1370q-33 -101 -90 -190q-56 -87 -144 -155q-89 -69 -202 -105q-115 -37 -271 -37zM2341 795q-81 0 -161 -37q-87 -40 -158 -96q-76 -60 -147 -132q-74 -75 -128 -141q-47 -57 -100 -130q-43 -60 -66 -93h1104v297q0 79 -28 144q-28 64 -73 104
q-47 41 -110 62q-66 22 -133 22z" />
    <glyph glyph-name="uni0637" unicode="&#x637;" horiz-adv-x="1818" arabic-form="isolated" 
d="M61 166h195v1298h174v-1011h8q68 93 148 180q87 94 178 163q94 70 206 118q111 47 230 47q235 0 371 -128q135 -127 135 -376v-457h-1645v166zM1192 795q-81 0 -161 -37q-87 -40 -158 -96q-77 -60 -147 -132q-74 -75 -128 -141q-47 -57 -100 -130q-44 -60 -66 -93h1104
v297q0 79 -28 144q-28 64 -73 104q-47 41 -110 62q-66 22 -133 22z" />
    <glyph glyph-name="uni0638" unicode="&#x638;" horiz-adv-x="1818" arabic-form="isolated" 
d="M819 1407h174v-240h-174v240zM61 166h195v1298h174v-1011h8q68 93 148 180q87 94 178 163q94 70 206 118q111 47 230 47q235 0 371 -128q135 -127 135 -376v-457h-1645v166zM1192 795q-81 0 -161 -37q-87 -40 -158 -96q-77 -60 -147 -132q-74 -75 -128 -141
q-47 -57 -100 -130q-44 -60 -66 -93h1104v297q0 79 -28 144q-28 64 -73 104q-47 41 -110 62q-66 22 -133 22z" />
    <glyph glyph-name="uni0639" unicode="&#x639;" horiz-adv-x="1181" arabic-form="isolated" 
d="M242 -240q0 -62 23 -124q22 -60 65 -123h-172q-38 48 -66 112q-31 71 -31 135q0 67 22 135q21 63 59 117q38 53 91 94q53 40 117 62v8q-30 24 -56 67q-27 45 -44 91q-20 54 -29 101q-10 50 -10 95q0 108 31 199q30 89 87 150t136 94t180 33t172 -37t121 -96
q50 -60 77 -132q29 -78 40 -147h-168q-12 110 -77 175t-165 65q-49 0 -95 -18q-47 -18 -80 -54q-32 -35 -54 -94q-21 -57 -21 -138q0 -160 71 -263q70 -101 196 -101h428v-166h-594q-53 0 -98 -13q-46 -13 -81 -42q-34 -28 -55 -75q-20 -44 -20 -110z" />
    <glyph glyph-name="uni063A" unicode="&#x63a;" horiz-adv-x="1181" arabic-form="isolated" 
d="M571 1489h174v-240h-174v240zM242 -240q0 -62 23 -124q22 -60 65 -123h-172q-38 48 -66 112q-31 71 -31 135q0 67 22 135q21 63 59 117q38 53 91 94q53 40 117 62v8q-30 24 -56 67q-27 45 -44 91q-20 54 -29 101q-10 50 -10 95q0 108 31 199q30 89 87 150t136 94t180 33
t172 -37t121 -96q50 -60 77 -132q29 -78 40 -147h-168q-12 110 -77 175t-165 65q-49 0 -95 -18q-47 -18 -80 -54q-32 -35 -54 -94q-21 -57 -21 -138q0 -160 71 -263q70 -101 196 -101h428v-166h-594q-53 0 -98 -13q-46 -13 -81 -42q-34 -28 -55 -75q-20 -44 -20 -110z" />
    <glyph glyph-name="uni0641" unicode="&#x641;" horiz-adv-x="2252" arabic-form="isolated" 
d="M1604 1464h174v-239h-174v239zM1681 836q-133 0 -216 -92t-83 -242q0 -74 23 -138q23 -65 62 -108q42 -46 95 -70q54 -24 119 -24q131 0 215 86t84 254t-83 251t-216 83zM530 0q-84 0 -165 25q-80 25 -137 80t-92 147q-34 89 -34 221v137h160v-139q0 -157 69 -231
t199 -74h805v8q-17 15 -40 50q-22 32 -44 82q-16 35 -34 97q-15 51 -15 99q0 245 128 375q128 129 351 129t352 -132q128 -131 128 -372t-125 -372q-124 -130 -355 -130h-1151z" />
    <glyph glyph-name="uni0642" unicode="&#x642;" horiz-adv-x="1642" arabic-form="isolated" 
d="M1210 1464h174v-239h-174v239zM860 1464h174v-239h-174v239zM1110 0q-110 0 -194 34q-85 34 -143 97t-90 152q-32 90 -32 196q0 101 20 198q20 98 70 168q52 74 137 117q86 44 218 44t219 -43q89 -43 141 -123q54 -82 75 -195q21 -114 21 -260q0 -241 -42 -419
q-42 -180 -132 -298t-233 -178q-142 -59 -346 -59q-203 0 -341 57q-137 57 -222 161q-85 105 -122 250q-39 151 -40 324h162q0 -176 33 -289q35 -119 103 -192q69 -74 176 -108q103 -33 255 -33q233 0 373 103q141 104 182 296h-248zM1374 166v237q0 212 -61 321
q-62 110 -215 110q-78 0 -128 -29t-80 -77t-42 -113q-12 -64 -12 -136q0 -155 66 -234t208 -79h264z" />
    <glyph glyph-name="uni0643" unicode="&#x643;" horiz-adv-x="1497" arabic-form="isolated" 
d="M516 600v74h92v8q-7 9 -26 44q-15 27 -15 56q0 64 39 107t119 43t117 -37q36 -36 41 -109h-80q0 31 -22 53q-21 21 -56 21q-36 0 -54 -24t-18 -66q0 -41 23 -67q21 -24 53 -29h170v-74h-383zM530 0q-84 0 -165 25q-80 25 -137 80t-92 147q-34 89 -34 221v137h160v-139
q0 -157 69 -231t199 -74h664v1298h170v-1464h-834z" />
    <glyph glyph-name="uni0644" unicode="&#x644;" horiz-adv-x="1464" arabic-form="isolated" 
d="M1331 1464v-1050q0 -202 -31 -374q-30 -166 -104 -284q-73 -116 -199 -180q-124 -63 -313 -63q-188 0 -308 63t-188 178q-68 114 -92 275q-24 159 -24 354h159q0 -199 24 -333t78 -216t141 -117q86 -34 216 -34q114 0 198 36q87 37 147 120q61 84 92 216q32 136 32 328
v1081h172z" />
    <glyph glyph-name="uni0645" unicode="&#x645;" horiz-adv-x="1323" arabic-form="isolated" 
d="M272 502q0 245 128 375q128 129 352 129q222 0 351 -132q128 -131 128 -372t-125 -372q-124 -130 -354 -130h-271q-67 0 -112 -16q-47 -17 -77 -45q-28 -27 -44 -66q-15 -38 -15 -76v-284h-172v282q0 165 86 257t273 110q-18 17 -41 52q-23 36 -48 86q-20 41 -41 101
q-18 52 -18 101zM752 836q-133 0 -216 -92t-83 -242q0 -76 22 -138q23 -63 63 -108q42 -47 94 -70q54 -24 120 -24q131 0 215 86t84 254t-83 251t-216 83z" />
    <glyph glyph-name="uni0646" unicode="&#x646;" horiz-adv-x="1671" arabic-form="isolated" 
d="M784 999h174v-239h-174v239zM778 -487q-340 0 -523 223t-183 659v178h172v-178q0 -358 127 -536t403 -178q138 0 248 43t186 131q77 89 117 223q41 137 41 317v221h172v-251q0 -156 -37 -307q-38 -153 -124 -274q-88 -123 -233 -197t-366 -74z" />
    <glyph glyph-name="uni0648" unicode="&#x648;" horiz-adv-x="1087" arabic-form="isolated" 
d="M381 -324q83 0 149 15q70 16 116 51q51 39 84 99q32 58 54 159h-239q-110 0 -193 37q-85 38 -141 101q-58 66 -88 152q-31 90 -31 189q0 103 24 198q24 96 77 168q54 74 139 117q86 44 213 44q126 0 213 -41t139 -120q53 -79 76 -193q22 -111 22 -259q0 -255 -32 -418
q-33 -166 -104 -271q-71 -104 -181 -147q-112 -44 -266 -44q-47 0 -74 4q-35 5 -53 10q-19 6 -41 16v166q26 -14 65 -23q42 -10 72 -10zM815 403q0 222 -67 326q-68 105 -201 105q-71 0 -120 -27t-84 -74q-33 -44 -50 -111q-17 -66 -17 -143q0 -313 269 -313h262q4 52 6 112
q2 78 2 125z" />
    <glyph glyph-name="uni0649" unicode="&#x649;" horiz-adv-x="1595" arabic-form="isolated" 
d="M809 -322q107 0 202 15q98 16 166 46q71 31 111 81q41 50 41 117q0 40 -14 65q-16 28 -51 48q-40 22 -102 44q-107 37 -163 56q-165 52 -254 158q-88 104 -88 247q0 82 22 167q20 79 71 143q50 63 130 102q81 39 197 39q179 0 282 -111t118 -315h-154q-16 133 -83 197
q-66 63 -163 63q-110 0 -178 -73t-68 -212q0 -53 24 -93q24 -41 68 -71q43 -30 108 -57q48 -20 145 -53q173 -59 250 -140q77 -80 77 -204q0 -87 -41 -166q-41 -80 -126 -136q-86 -57 -216 -90q-127 -32 -313 -32q-201 0 -342 50q-137 49 -226 145q-87 94 -126 232
q-40 138 -41 306h164q0 -175 38 -283q39 -110 113 -174q73 -63 180 -87t242 -24z" />
    <glyph glyph-name="uni064A" unicode="&#x64a;" horiz-adv-x="1595" arabic-form="isolated" 
d="M967 -721h174v-240h-174v240zM616 -721h175v-240h-175v240zM809 -322q107 0 202 15q98 16 166 46q71 31 111 81q41 50 41 117q0 40 -14 65q-16 28 -51 48q-40 22 -102 44q-107 37 -163 56q-165 52 -254 158q-88 104 -88 247q0 82 22 167q20 79 71 143q50 63 130 102
q81 39 197 39q179 0 282 -111t118 -315h-154q-16 133 -83 197q-66 63 -163 63q-110 0 -178 -73t-68 -212q0 -53 24 -93q24 -41 68 -71q43 -30 108 -57q48 -20 145 -53q173 -59 250 -140q77 -80 77 -204q0 -87 -41 -166q-41 -80 -126 -136q-86 -57 -216 -90
q-127 -32 -313 -32q-201 0 -342 50q-137 49 -226 145q-87 94 -126 232q-40 138 -41 306h164q0 -175 38 -283q39 -110 113 -174q73 -63 180 -87t242 -24z" />
    <glyph glyph-name="uni0671" unicode="&#x671;" horiz-adv-x="440" arabic-form="isolated" 
d="M332 1939q80 0 107 -44q28 -45 28 -109v-107h-420v74h57q15 38 40 70q20 25 57 59q30 27 64 42t67 15zM387 1753v33q0 35 -20 55q-21 21 -50 21q-47 0 -78 -37q-34 -40 -49 -72h197zM133 0v1464h174v-1464h-174z" />
    <glyph glyph-name="uni0679" unicode="&#x679;" horiz-adv-x="1986" arabic-form="isolated" 
d="M1679 166v706h174v-872h-1323q-84 0 -165 25q-80 25 -137 80t-92 147q-34 89 -34 221v137h160v-139q0 -157 69 -231t199 -74h1149zM786 950v301h76v-192q31 29 73 53q37 21 77 21q80 0 107 -44q28 -45 28 -110v-107h-420v74h57q2 2 2 4zM1067 946v33q0 35 -20 55
q-21 21 -50 21q-47 0 -78 -37q-34 -40 -49 -72h197z" />
    <glyph glyph-name="uni067E" unicode="&#x67e;" horiz-adv-x="1986" arabic-form="isolated" 
d="M868 -123h113v-156h-113v156zM1096 -123h112v-156h-112v156zM983 -326h113v-157h-113v157zM1679 166v706h174v-872h-1323q-84 0 -165 25q-80 25 -137 80t-92 147q-34 89 -34 221v137h160v-139q0 -157 69 -231t199 -74h1149z" />
    <glyph glyph-name="uni0686" unicode="&#x686;" horiz-adv-x="1366" arabic-form="isolated" 
d="M516 -123h113v-156h-113v156zM743 -123h113v-156h-113v156zM631 -326h112v-157h-112v157zM512 166h541q-7 19 -13 45q-2 7 -8 33t-9 41q-11 49 -17 87q-3 16 -8 43.5t-7 39.5q-30 193 -118 289t-199 96q-145 0 -234 -79q-90 -80 -114 -208h-168q7 89 49 174
q39 80 108 144q67 63 159 99t200 36t193 -43t147 -120t99 -180t54 -227q15 -110 27 -181q11 -63 23 -113q14 -58 18 -74q9 -35 18 -68h-718q-139 0 -222 -66q-82 -66 -82 -159q0 -69 20 -131q19 -58 66 -131h-159q-44 56 -69 116q-28 68 -28 152q0 78 27 147q28 72 82 123
q59 55 140 84q88 31 202 31z" />
    <glyph glyph-name="uni0688" unicode="&#x688;" horiz-adv-x="1064" arabic-form="isolated" 
d="M305 1276v301h76v-193q33 32 73 54q36 20 76 20q81 0 108 -44q28 -45 28 -109v-107h-420v74h57q2 2 2 4zM586 1272v33q0 34 -21 55q-20 20 -49 20q-48 0 -79 -37q-33 -39 -48 -71h197zM186 0v166h594v260q0 78 -17 143q-19 72 -56 122q-39 53 -99 84q-61 32 -143 32h-189
v164h158q109 0 207 -31q94 -30 164 -97q69 -66 108 -171t39 -252v-420h-766z" />
    <glyph glyph-name="uni0691" unicode="&#x691;" horiz-adv-x="655" arabic-form="isolated" 
d="M264 1280v301h76v-192q31 29 73 53q36 20 76 20q81 0 108 -44q28 -45 28 -109v-107h-420v74h57q2 2 2 4zM545 1276v33q0 34 -21 55q-20 20 -49 20q-49 0 -79 -36q-32 -38 -48 -72h197zM174 -319q44 0 75 15t54 51q22 35 34 95q11 55 11 150v880h174v-880q0 -235 -73 -357
t-250 -122q-40 0 -73 5q-26 4 -48 13q-22 7 -37 18v166q62 -34 133 -34z" />
    <glyph glyph-name="uni0698" unicode="&#x698;" horiz-adv-x="655" arabic-form="isolated" 
d="M373 1780h174v-240h-174v240zM547 1464h174v-239h-174v239zM197 1464h174v-239h-174v239zM174 -319q44 0 75 15t54 51q22 35 34 95q11 55 11 150v880h174v-880q0 -235 -73 -357t-250 -122q-40 0 -73 5q-26 4 -48 13q-22 7 -37 18v166q62 -34 133 -34z" />
    <glyph glyph-name="uni06A4" unicode="&#x6a4;" horiz-adv-x="2252" arabic-form="isolated" 
d="M1599 1780h175v-240h-175v240zM1774 1464h174v-239h-174v239zM1423 1464h174v-239h-174v239zM1681 836q-133 0 -216 -92t-83 -242q0 -74 23 -138q23 -65 62 -108q42 -46 95 -70q54 -24 119 -24q131 0 215 86t84 254t-83 251t-216 83zM530 0q-84 0 -165 25q-80 25 -137 80
t-92 147q-34 89 -34 221v137h160v-139q0 -157 69 -231t199 -74h805v8q-17 15 -40 50q-22 32 -44 82q-16 35 -34 97q-15 51 -15 99q0 245 128 375q128 129 351 129t352 -132q128 -131 128 -372t-125 -372q-124 -130 -355 -130h-1151z" />
    <glyph glyph-name="uni06A9" unicode="&#x6a9;" horiz-adv-x="1818" arabic-form="isolated" 
d="M530 0q-84 0 -165 25q-80 25 -137 80t-92 147q-34 89 -34 221v137h160v-139q0 -157 69 -231t199 -74h996v287q0 95 -25 164q-24 67 -65 109q-40 41 -95 60q-57 19 -112 19h-522v166l491 493h234l-486 -493h273q134 0 226 -40q93 -40 151 -109t84 -164q26 -96 26 -205
v-453h-1176z" />
    <glyph glyph-name="uni06AF" unicode="&#x6af;" horiz-adv-x="1818" arabic-form="isolated" 
d="M485 971h-161l489 493h166zM530 0q-84 0 -165 25q-80 25 -137 80t-92 147q-34 89 -34 221v137h160v-139q0 -157 69 -231t199 -74h996v287q0 95 -25 164q-24 67 -65 109q-40 41 -95 60q-57 19 -112 19h-522v166l491 493h234l-486 -493h273q134 0 226 -40q93 -40 151 -109
t84 -164q26 -96 26 -205v-453h-1176z" />
    <glyph glyph-name="uni06BA" unicode="&#x6ba;" horiz-adv-x="1728" arabic-form="isolated" 
d="M778 -487q-340 0 -523 223t-183 659v178h172v-178q0 -358 127 -536t403 -178q138 0 248 43t186 131q77 89 117 223q41 137 41 317v221h172v-251q0 -156 -37 -307q-38 -153 -124 -274q-88 -123 -233 -197t-366 -74z" />
    <glyph glyph-name="uni06BE" unicode="&#x6be;" horiz-adv-x="1783" arabic-form="isolated" 
d="M487 406q0 80 21 141q22 63 57 103q40 45 86 67q54 26 107 33q61 115 172 185q113 71 260 71q253 0 368 -135q113 -132 113 -382v-489h-1241q-86 0 -136 -26t-50 -105v-37h-183v49q0 153 95 219t274 66h154q-42 34 -70 92q-27 57 -27 148zM1135 406q0 -89 -28 -148
q-27 -57 -71 -92h463v323q0 94 -23 157q-24 67 -66 110q-40 42 -98 63q-57 21 -122 21q-75 0 -139 -32t-105 -79q83 -34 136 -114t53 -209zM811 178q34 0 68 17q32 16 59 46q28 31 42 71q15 42 15 94q0 102 -55 157t-129 55t-129 -55t-55 -157q0 -52 15 -94q14 -40 42 -71
q27 -30 59 -46q34 -17 68 -17z" />
    <glyph glyph-name="uni06C1" unicode="&#x6c1;" horiz-adv-x="1138" arabic-form="isolated" 
d="M569 -23q-113 0 -203 38q-89 38 -150 106t-92 162q-32 96 -32 209q0 111 32 207q32 95 92 163q61 68 150 106q90 38 203 38q114 0 204 -38q89 -38 150 -106q60 -68 92 -163q32 -96 32 -207q0 -113 -32 -209q-31 -94 -92 -162t-150 -106q-90 -38 -204 -38zM569 147
q74 0 132 26q56 25 94 71q37 44 55 108q18 63 18 140q0 76 -18 139q-18 64 -55 108q-38 46 -94 71q-58 26 -132 26t-132 -26q-54 -24 -93 -71q-37 -44 -55 -108q-19 -67 -19 -139q0 -74 19 -140q18 -64 55 -108q39 -47 93 -71q58 -26 132 -26z" />
    <glyph glyph-name="uni06C2.fina" unicode="&#x6c2;" horiz-adv-x="1245" 
d="M426 1354h78v6q-15 16 -27 44q-12 27 -12 56q0 66 39 108t117 42q59 0 103 -36q45 -37 46 -110h-72q-2 31 -22 54q-21 24 -55 24q-32 0 -54 -23t-22 -69q0 -48 25 -72q26 -24 63 -24h147v-74h-354v74zM92 494q0 76 23 160t72 151t131 111q84 45 198 45h432v-584
q0 -110 46 -160q46 -51 151 -51h57q18 0 30 -4q13 -4 13 -25v-114q0 -23 -43 -23h-57q-69 0 -138 22q-68 22 -118 67q-53 48 -82 118q-31 74 -31 170v418h-260q-53 0 -102 -22q-47 -21 -83 -60q-37 -40 -56 -96t-19 -123q0 -26 -1 -53t-1 -81v-108h-162v242z" />
    <glyph glyph-name="uni06C3.fina" unicode="&#x6c3;" horiz-adv-x="1212" 
d="M682 1464h174v-239h-174v239zM332 1464h174v-239h-174v239zM1155 0q-68 0 -119 19t-95 52t-71 74q-30 45 -47 93q-47 -66 -125 -116q-79 -50 -180 -50q-76 0 -153 24q-76 24 -137 77q-62 54 -98 134q-38 84 -38 197q0 98 24 183q25 89 75 149q52 62 136 99q83 36 199 36
h432v-547q0 -75 17 -126q17 -52 43 -79q28 -30 62 -41q36 -12 75 -12h57q18 0 30 -4q13 -4 13 -25v-114q0 -23 -43 -23h-57zM518 240q49 0 97 15q47 15 86 46q37 30 62 79q23 46 23 116v309h-260q-53 0 -102 -22q-47 -21 -83 -60t-55 -95q-20 -58 -20 -124t22 -118
q21 -50 57 -83t81 -48t92 -15z" />
    <glyph glyph-name="uni06CC" unicode="&#x6cc;" horiz-adv-x="1595" arabic-form="isolated" 
d="M809 -322q107 0 202 15q98 16 166 46q71 31 111 81q41 50 41 117q0 40 -14 65q-16 28 -51 48q-40 22 -102 44q-107 37 -163 56q-165 52 -254 158q-88 104 -88 247q0 82 22 167q20 79 71 143q50 63 130 102q81 39 197 39q179 0 282 -111t118 -315h-154q-16 133 -83 197
q-66 63 -163 63q-110 0 -178 -73t-68 -212q0 -53 24 -93q24 -41 68 -71q43 -30 108 -57q48 -20 145 -53q173 -59 250 -140q77 -80 77 -204q0 -87 -41 -166q-41 -80 -126 -136q-86 -57 -216 -90q-127 -32 -313 -32q-201 0 -342 50q-137 49 -226 145q-87 94 -126 232
q-40 138 -41 306h164q0 -175 38 -283q39 -110 113 -174q73 -63 180 -87t242 -24z" />
    <glyph glyph-name="uni06D2" unicode="&#x6d2;" horiz-adv-x="1814" arabic-form="isolated" 
d="M102 459q0 86 26 166q25 76 83 136q55 57 149 92q90 34 224 34h356v-160h-358q-158 0 -232 -69t-74 -199v-293h1018q131 0 200 74t69 231v141h159v-139q0 -135 -33 -221q-35 -90 -93 -147q-57 -56 -136 -80q-81 -25 -166 -25h-1192v459z" />
    <glyph glyph-name="uni06D3" unicode="&#x6d3;" horiz-adv-x="1814" arabic-form="isolated" 
d="M631 1264h78v6q-15 16 -27 44q-12 27 -12 56q0 66 39 108t116 42q61 0 104 -36q45 -37 46 -110h-72q-2 30 -22 53q-22 25 -56 25q-31 0 -53 -24q-22 -23 -22 -68q0 -48 25 -72t63 -24h147v-74h-354v74zM102 459q0 86 26 166q25 76 83 136q55 57 149 92q90 34 224 34h356
v-160h-358q-158 0 -232 -69t-74 -199v-293h1018q131 0 200 74t69 231v141h159v-139q0 -135 -33 -221q-35 -90 -93 -147q-57 -56 -136 -80q-81 -25 -166 -25h-1192v459z" />
    <glyph glyph-name="uni06D5.fina" unicode="&#x6d5;" horiz-adv-x="1212" 
d="M1155 0q-68 0 -119 19t-95 52t-71 74q-30 45 -47 93q-47 -66 -125 -116q-79 -50 -180 -50q-76 0 -153 24q-76 24 -137 77q-62 54 -98 134q-38 84 -38 197q0 98 24 183q25 89 75 149q52 62 136 99q83 36 199 36h432v-547q0 -75 17 -126q17 -52 43 -79q28 -30 62 -41
q36 -12 75 -12h57q18 0 30 -4q13 -4 13 -25v-114q0 -23 -43 -23h-57zM518 240q49 0 97 15q47 15 86 46q37 30 62 79q23 46 23 116v309h-260q-53 0 -102 -22q-47 -21 -83 -60t-55 -95q-20 -58 -20 -124t22 -118q21 -50 57 -83t81 -48t92 -15z" />
    <glyph glyph-name="uniFB51" unicode="&#x671;" horiz-adv-x="491" arabic-form="final" 
d="M350 1939q81 0 108 -44q27 -43 27 -109v-107h-419v74h57q15 38 40 70q22 28 56 59q30 27 65 42t66 15zM406 1753v33q0 34 -21 55t-49 21q-48 0 -79 -37t-48 -72h197zM492 166q17 0 29 -4q14 -5 14 -25v-114q0 -23 -43 -23h-359v1464h174v-1298h185z" />
    <glyph glyph-name="uniFB57" unicode="&#x67e;" horiz-adv-x="2162" arabic-form="final" 
d="M862 -123h113v-156h-113v156zM1090 -123h112v-156h-112v156zM977 -326h113v-157h-113v157zM2093 0q-46 0 -89 14q-44 14 -86 39q-38 23 -71 57q-31 32 -45 68q-46 -91 -128 -135q-80 -43 -171 -43h-973q-84 0 -165 25q-80 25 -137 80t-92 147q-34 89 -34 221v137h160
v-139q0 -157 69 -231t199 -74h975q71 0 121 46q51 46 51 159v501h172v-442q0 -58 20 -107q21 -51 53 -83q36 -36 78 -55t93 -19h70q17 0 29 -4q14 -5 14 -25v-114q0 -23 -43 -23h-70z" />
    <glyph glyph-name="uniFB58" unicode="&#x67e;" horiz-adv-x="737" arabic-form="initial" 
d="M242 -123h112v-156h-112v156zM469 -123h113v-156h-113v156zM356 -326h113v-157h-113v157zM408 166v706h174v-872h-582q-43 0 -43 23v114q0 21 13 25q12 4 30 4h408z" />
    <glyph glyph-name="uniFB59" unicode="&#x67e;" horiz-adv-x="972" arabic-form="medial" 
d="M414 -123h112v-156h-112v156zM641 -123h113v-156h-113v156zM528 -326h113v-157h-113v157zM885 0q-46 0 -89 14q-44 14 -86 39q-38 23 -71 57q-31 32 -45 68q-46 -91 -128 -135q-80 -43 -171 -43h-295q-43 0 -43 23v114q0 21 13 25q12 4 30 4h297q71 0 121 46
q51 46 51 159v501h172v-430q0 -62 19 -112t53 -87q33 -36 78 -57q43 -20 94 -20h88q17 0 29 -4q14 -5 14 -25v-114q0 -23 -43 -23h-88z" />
    <glyph glyph-name="uniFB67" unicode="&#x679;" horiz-adv-x="2162" arabic-form="final" 
d="M2093 0q-46 0 -89 14q-44 14 -86 39q-38 23 -71 57q-31 32 -45 68q-46 -91 -128 -135q-80 -43 -171 -43h-973q-84 0 -165 25q-80 25 -137 80t-92 147q-34 89 -34 221v137h160v-139q0 -157 69 -231t199 -74h975q71 0 121 46q51 46 51 159v501h172v-442q0 -58 20 -107
q21 -51 53 -83q36 -36 78 -55t93 -19h70q17 0 29 -4q14 -5 14 -25v-114q0 -23 -43 -23h-70zM772 950v301h76v-192q31 29 73 53q38 21 76 21q81 0 108 -44q28 -45 28 -110v-107h-420v74h57q2 2 2 4zM1053 946v33q0 34 -21 55t-49 21q-48 0 -79 -37q-32 -38 -48 -72h197z" />
    <glyph glyph-name="uniFB68" unicode="&#x679;" horiz-adv-x="714" arabic-form="initial" 
d="M221 1280v301h76v-192q31 29 73 53q36 20 76 20q81 0 108 -44q28 -45 28 -109v-107h-420v74h57q2 2 2 4zM502 1276v33q0 34 -21 55q-20 20 -49 20q-49 0 -79 -36q-31 -38 -48 -72h197zM408 166v706h174v-872h-582q-43 0 -43 23v114q0 21 13 25q12 4 30 4h408z" />
    <glyph glyph-name="uniFB69" unicode="&#x679;" horiz-adv-x="972" arabic-form="medial" 
d="M369 1276v301h75v-193q33 32 73 54q36 20 77 20q80 0 107 -44q28 -45 28 -109v-107h-420v74h58q2 2 2 4zM649 1272v33q0 35 -20 55t-49 20q-48 0 -79 -37q-33 -39 -48 -71h196zM885 0q-46 0 -89 14q-44 14 -86 39q-38 23 -71 57q-31 32 -45 68q-46 -91 -128 -135
q-80 -43 -171 -43h-295q-43 0 -43 23v114q0 21 13 25q12 4 30 4h297q71 0 121 46q51 46 51 159v501h172v-430q0 -62 19 -112t53 -87q33 -36 78 -57q43 -20 94 -20h88q17 0 29 -4q14 -5 14 -25v-114q0 -23 -43 -23h-88z" />
    <glyph glyph-name="uniFB6B" unicode="&#x6a4;" horiz-adv-x="2324" arabic-form="final" 
d="M1614 1780h174v-240h-174v240zM1788 1464h174v-239h-174v239zM1438 1464h174v-239h-174v239zM1688 834q-144 0 -221 -84q-76 -83 -76 -248t76 -254q77 -90 221 -90t220 90q77 91 77 254t-77 248q-76 84 -220 84zM530 0q-84 0 -165 25q-80 25 -137 80t-92 147
q-34 89 -34 221v137h160v-139q0 -157 69 -231t199 -74h809v8q-17 15 -40 50q-22 32 -44 82q-16 35 -34 97q-15 51 -15 99q0 244 130 374t352 130q221 0 350 -126t129 -378q0 -46 -15 -96q-19 -63 -34 -94q-24 -50 -44 -81q-21 -33 -40 -57v-8h290q18 0 30 -4q13 -4 13 -25
v-114q0 -23 -43 -23h-1794z" />
    <glyph glyph-name="uniFB6C" unicode="&#x6a4;" horiz-adv-x="1245" arabic-form="initial" 
d="M610 1780h174v-240h-174v240zM784 1464h174v-239h-174v239zM434 1464h174v-239h-174v239zM0 0q-43 0 -43 23v114q0 21 13 25q12 4 30 4h328v8q-17 15 -40 50q-22 32 -44 82q-19 41 -35 97q-14 48 -14 99q0 245 128 375q127 129 351 129q222 0 351 -132q128 -131 128 -372
t-125 -372q-124 -130 -354 -130h-674zM674 836q-133 0 -216 -92t-83 -242q0 -76 22 -138q23 -63 63 -108q42 -47 94 -70q54 -24 120 -24q131 0 215 86t84 254t-83 251t-216 83z" />
    <glyph glyph-name="uniFB6D" unicode="&#x6a4;" horiz-adv-x="1257" arabic-form="medial" 
d="M547 1780h174v-240h-174v240zM721 1464h174v-239h-174v239zM371 1464h174v-239h-174v239zM621 834q-145 0 -221 -84q-76 -83 -76 -248t76 -254q76 -90 221 -90q143 0 220 90q77 91 77 254t-77 248q-77 84 -220 84zM0 0q-43 0 -43 23v114q0 21 13 25q12 4 30 4h272v8
q-17 15 -40 50q-22 32 -44 82q-16 35 -34 97q-15 51 -15 99q0 244 130 374t352 130q221 0 350 -126t129 -378q0 -46 -15 -96q-19 -63 -34 -94q-24 -50 -44 -81q-21 -33 -40 -57v-8h290q18 0 30 -4q13 -4 13 -25v-114q0 -23 -43 -23h-1257z" />
    <glyph glyph-name="uniFB7B" unicode="&#x686;" horiz-adv-x="1558" arabic-form="final" 
d="M516 -123h113v-156h-113v156zM743 -123h113v-156h-113v156zM631 -326h112v-157h-112v157zM1049 166v323q0 81 -26 148q-25 64 -70 111q-42 43 -101 68q-57 24 -121 24q-144 0 -244 -79t-124 -208h-168q7 90 50 174q41 80 111 144q68 62 165 99q95 36 210 36
q119 0 209 -37q92 -38 155 -107q60 -66 96 -169q34 -98 34 -222v-92q0 -107 63 -160q64 -53 156 -53h115q17 0 29 -4q14 -5 14 -25v-114q0 -23 -43 -23h-117q-29 0 -62 9q-31 9 -62 27q-28 16 -53 42q-23 23 -36 55h-4q-1 -18 -16 -59q-13 -36 -42 -74h-632q-86 0 -140 -17
t-94 -49q-36 -29 -53 -71t-17 -88q0 -69 20 -131q19 -58 66 -131h-159q-44 56 -69 116q-28 68 -28 152q0 78 27 147q28 72 82 123q59 55 140 84q88 31 202 31h537z" />
    <glyph glyph-name="uniFB7C" unicode="&#x686;" horiz-adv-x="1490" arabic-form="initial" 
d="M516 -123h113v-156h-113v156zM743 -123h113v-156h-113v156zM631 -326h112v-157h-112v157zM727 840q-65 0 -130 -24q-68 -25 -119 -62q-54 -39 -91 -91q-36 -50 -47 -110h-168q7 90 53 174q43 78 118 144q72 63 171 99t213 36q127 0 225 -43q97 -43 170 -120
q71 -76 115 -180q42 -100 59 -227q11 -82 26 -181q18 -102 20 -113q2 -12 18 -74q9 -35 18 -68h-1378q-43 0 -43 23v114q0 21 13 25q12 4 30 4h1180q-7 19 -13 45q-12 55 -16 74q-15 82 -16 87q-3 16 -8 43.5t-7 39.5q-30 194 -138 289q-110 96 -255 96z" />
    <glyph glyph-name="uniFB7D" unicode="&#x686;" horiz-adv-x="1611" arabic-form="medial" 
d="M516 -123h113v-156h-113v156zM743 -123h113v-156h-113v156zM631 -326h112v-157h-112v157zM1120 166v323q0 83 -37 148q-38 67 -95 111q-56 43 -132 68q-74 24 -147 24q-65 0 -130 -24q-68 -25 -119 -62q-54 -39 -91 -91q-36 -50 -47 -110h-168q7 90 53 174q43 78 118 144
q72 63 171 99t213 36q127 0 234 -37q105 -36 186 -107q79 -68 123 -169q44 -100 44 -222v-92q0 -107 64 -160t156 -53h96q17 0 29 -4q14 -5 14 -25v-114q0 -23 -43 -23h-99q-29 0 -60 9t-61 27q-31 19 -53 42q-21 22 -34 55h-9q-1 -21 -15 -59q-13 -36 -42 -74h-1239
q-43 0 -43 23v114q0 21 13 25q12 4 30 4h1120z" />
    <glyph glyph-name="uniFB89" unicode="&#x688;" horiz-adv-x="1282" arabic-form="final" 
d="M305 1280v301h76v-192q31 29 73 53q36 20 76 20q81 0 108 -44q28 -45 28 -109v-107h-420v74h57q2 2 2 4zM586 1276v33q0 34 -21 55q-20 20 -49 20q-49 0 -79 -36q-31 -38 -48 -72h197zM1282 166q18 0 30 -4q13 -4 13 -25v-114q0 -23 -43 -23h-98q-30 0 -61 9t-61 27
q-29 17 -52 42q-23 24 -35 55h-8q-1 -18 -16 -59q-13 -36 -42 -74h-708v166h594v260q0 74 -18 143q-19 72 -56 122q-40 53 -98 84q-61 32 -144 32h-188v164h158q108 0 206 -31q94 -30 164 -97q71 -67 109 -171q39 -105 39 -252v-29q0 -112 63 -169q62 -56 156 -56h96z" />
    <glyph glyph-name="uniFB8B" unicode="&#x698;" horiz-adv-x="847" arabic-form="final" 
d="M369 1780h174v-240h-174v240zM543 1464h174v-239h-174v239zM193 1464h174v-239h-174v239zM848 166q18 0 30 -4q13 -4 13 -25v-114q0 -23 -43 -23h-109q-32 0 -65 10q-38 11 -67 31q-30 20 -55 48q-24 27 -30 63v-160q0 -235 -73 -357t-250 -122q-40 0 -73 5q-26 4 -48 13
q-22 7 -37 18v166q62 -34 133 -34q44 0 75 15t54 51q22 35 34 95q11 55 11 150v880h174v-481q0 -111 64 -169q62 -56 155 -56h107z" />
    <glyph glyph-name="uniFB8D" unicode="&#x691;" horiz-adv-x="847" arabic-form="final" 
d="M240 1280v301h75v-192q31 29 73 53q36 20 77 20q80 0 107 -44q28 -45 28 -109v-107h-420v74h58q2 2 2 4zM520 1276v33q0 35 -20 55t-49 20q-49 0 -79 -36q-32 -38 -48 -72h196zM848 166q18 0 30 -4q13 -4 13 -25v-114q0 -23 -43 -23h-109q-32 0 -65 10q-38 11 -67 31
q-30 20 -55 48q-24 27 -30 63v-160q0 -235 -73 -357t-250 -122q-40 0 -73 5q-26 4 -48 13q-22 7 -37 18v166q62 -34 133 -34q44 0 75 15t54 51q22 35 34 95q11 55 11 150v880h174v-481q0 -111 64 -169q62 -56 155 -56h107z" />
    <glyph glyph-name="uniFB8F" unicode="&#x6a9;" horiz-adv-x="2027" arabic-form="final" 
d="M2028 166q17 0 29 -4q14 -5 14 -25v-114q0 -23 -43 -23h-105q-29 0 -60 9t-62 26q-30 16 -52 40q-23 25 -35 54h-8q-5 -25 -16 -58q-12 -36 -41 -71h-1119q-84 0 -165 25q-80 25 -137 80t-92 147q-34 89 -34 221v137h160v-139q0 -157 69 -231t199 -74h996v287
q0 95 -25 164q-24 67 -65 109q-40 41 -95 60q-57 19 -112 19h-522v166l491 493h234l-486 -493h273q134 0 226 -40q93 -40 151 -109t84 -164q26 -96 26 -205v-74q0 -107 63 -160q64 -53 156 -53h103z" />
    <glyph glyph-name="uniFB90" unicode="&#x6a9;" horiz-adv-x="1329" arabic-form="initial" 
d="M1036 166v287q0 98 -24 164q-24 65 -66 109q-40 41 -94 60q-55 19 -113 19h-626v166l491 493h234l-486 -493h377q134 0 226 -40q94 -41 152 -109q58 -69 84 -164q26 -96 26 -205v-453h-1217q-43 0 -43 23v114q0 21 13 25q12 4 30 4h1036z" />
    <glyph glyph-name="uniFB91" unicode="&#x6a9;" horiz-adv-x="1538" arabic-form="medial" 
d="M1036 453q0 98 -24 164q-24 65 -66 109q-40 41 -94 60q-55 19 -113 19h-626v166l491 493h234l-486 -493h377q134 0 226 -40q94 -41 152 -109q58 -69 84 -164q26 -96 26 -205v-74q0 -111 63 -162t156 -51h102q18 0 30 -4q13 -4 13 -25v-114q0 -23 -43 -23h-104
q-30 0 -61 9q-29 8 -61 26q-30 16 -52 40q-23 25 -35 54h-8q-3 -17 -17 -58q-12 -36 -41 -71h-1159q-43 0 -43 23v114q0 21 13 25q12 4 30 4h1036v287z" />
    <glyph glyph-name="uniFB93" unicode="&#x6af;" horiz-adv-x="2027" arabic-form="final" 
d="M508 971h-162l490 493h165zM2028 166q17 0 29 -4q14 -5 14 -25v-114q0 -23 -43 -23h-105q-29 0 -60 9t-62 26q-30 16 -52 40q-23 25 -35 54h-8q-5 -25 -16 -58q-12 -36 -41 -71h-1119q-84 0 -165 25q-80 25 -137 80t-92 147q-34 89 -34 221v137h160v-139q0 -157 69 -231
t199 -74h996v287q0 95 -25 164q-24 67 -65 109q-40 41 -95 60q-57 19 -112 19h-522v166l491 493h234l-486 -493h273q134 0 226 -40q93 -40 151 -109t84 -164q26 -96 26 -205v-74q0 -107 63 -160q64 -53 156 -53h103z" />
    <glyph glyph-name="uniFB94" unicode="&#x6af;" horiz-adv-x="1619" arabic-form="initial" 
d="M197 971h-162l489 493h166zM1327 166v287q0 98 -24 164q-24 65 -66 109q-40 41 -94 60q-57 19 -113 19h-627v166l492 493h233l-485 -493h377q134 0 226 -40q94 -41 152 -109q58 -69 84 -164q25 -93 25 -205v-453h-1507q-43 0 -43 23v114q0 21 13 25q12 4 30 4h1327z" />
    <glyph glyph-name="uniFB95" unicode="&#x6af;" horiz-adv-x="1832" arabic-form="medial" 
d="M1331 453q0 98 -24 164q-24 65 -66 109q-40 41 -94 60q-57 19 -113 19h-626v166l491 493h234l-486 -493h377q134 0 226 -40q94 -41 152 -109q58 -69 84 -164q25 -93 25 -205v-62q0 -111 64 -169q62 -56 156 -56h102q18 0 30 -4q13 -4 13 -25v-114q0 -23 -43 -23h-104
q-29 0 -61 9q-29 8 -61 26q-31 17 -54 40q-22 22 -35 54h-7q-5 -25 -16 -58q-12 -36 -41 -71h-1454q-43 0 -43 23v114q0 21 13 25q12 4 30 4h1331v287zM201 971h-162l489 493h166z" />
    <glyph glyph-name="uniFB9F" unicode="&#x6ba;" horiz-adv-x="1855" arabic-form="final" 
d="M778 -487q-170 0 -301 51q-132 52 -221 158q-91 109 -137 275q-47 168 -47 398v178h172v-178q0 -193 30 -330q30 -135 97 -222q65 -85 165 -124q96 -38 238 -38q141 0 248 36q110 37 186 122q77 86 117 221q41 138 41 335v221h172v-217q0 -66 20 -112t53 -72t79 -38
q41 -11 98 -11h67q18 0 30 -4q13 -4 13 -25v-114q0 -23 -43 -23h-69q-39 0 -80 12q-37 11 -78 34q-34 19 -63 48q-27 27 -35 58h-6q-21 -135 -70 -250q-50 -118 -138 -203q-90 -87 -221 -136q-133 -50 -317 -50z" />
    <glyph glyph-name="uniFBA5" unicode="&#x6c0;" horiz-adv-x="1212" arabic-form="final" 
d="M436 1356h78v6q-15 16 -27 44q-12 27 -12 56q0 66 39 108t117 42q59 0 103 -36q45 -37 46 -110h-71q-2 29 -23 54q-21 24 -55 24q-31 0 -53 -23q-23 -25 -23 -69q0 -48 26 -72t62 -24h148v-74h-355v74zM1155 0q-68 0 -119 19t-95 52t-71 74q-30 45 -47 93
q-47 -66 -125 -116q-79 -50 -180 -50q-76 0 -153 24q-76 24 -137 77q-62 54 -98 134q-38 84 -38 197q0 98 24 183q25 89 75 149q52 62 136 99q83 36 199 36h432v-547q0 -75 17 -126q17 -52 43 -79q28 -30 62 -41q36 -12 75 -12h57q18 0 30 -4q13 -4 13 -25v-114
q0 -23 -43 -23h-57zM518 240q49 0 97 15q47 15 86 46q37 30 62 79q23 46 23 116v309h-260q-53 0 -102 -22q-47 -21 -83 -60t-55 -95q-20 -58 -20 -124t22 -118q21 -50 57 -83t81 -48t92 -15z" />
    <glyph glyph-name="uniFBA7" unicode="&#x6c1;" horiz-adv-x="1202" arabic-form="final" 
d="M92 494q0 76 23 160t72 151t131 111q84 45 198 45h432v-584q0 -110 46 -160q46 -51 151 -51h57q18 0 30 -4q13 -4 13 -25v-114q0 -23 -43 -23h-57q-69 0 -138 22q-68 22 -118 67q-53 48 -82 118q-31 74 -31 170v418h-260q-53 0 -102 -22q-47 -21 -83 -60q-37 -40 -56 -96
t-19 -123q0 -26 -1 -53t-1 -81v-108h-162v242z" />
    <glyph glyph-name="uniFBA8" unicode="&#x6c1;" horiz-adv-x="735" arabic-form="initial" 
d="M408 166v706h174v-872h-183v-176q0 -65 31 -94t102 -29h70v-135h-70q-60 0 -110 12t-84 42t-54 80q-20 51 -20 124v176h-264q-43 0 -43 23v114q0 21 13 25q12 4 30 4h408z" />
    <glyph glyph-name="uniFBA9" unicode="&#x6c1;" horiz-adv-x="1640" arabic-form="medial" 
d="M1640 166q18 0 30 -4q13 -4 13 -25v-114q0 -23 -43 -23h-104q-28 0 -60 9t-62 27q-29 17 -52 42q-23 24 -35 55h-8q-1 -21 -15 -59q-13 -36 -42 -74h-1262q-43 0 -43 23v114q0 21 13 25q12 4 30 4h231q-41 32 -69 92q-27 57 -27 148q0 80 21 141q22 63 57 103
q40 45 86 67q54 26 107 33q61 115 172 185q113 71 260 71q252 0 367 -135q114 -133 114 -382v-110q0 -105 63 -159t156 -54h102zM782 406q0 -91 -27 -148t-71 -92h463v323q0 91 -24 157q-25 68 -65 110q-40 41 -99 63q-57 21 -121 21q-76 0 -140 -32q-62 -31 -104 -79
q83 -34 136 -114q52 -79 52 -209zM459 178q33 0 67 17t60 46q28 31 42 71q15 42 15 94q0 102 -55 157t-129 55t-129 -55q-56 -56 -56 -157q0 -49 16 -94q14 -40 42 -71q27 -30 59 -46q34 -17 68 -17z" />
    <glyph glyph-name="uniFBAB" unicode="&#x6be;" horiz-adv-x="1992" arabic-form="final" 
d="M1993 166q17 0 29 -4q14 -5 14 -25v-114q0 -23 -43 -23h-105q-28 0 -60 9t-62 27q-27 16 -53 42q-23 23 -36 55h-6q-1 -21 -15 -59q-13 -36 -42 -74h-1184q-86 0 -136 -26t-50 -105v-37h-183v49q0 153 95 219t274 66h154q-42 34 -70 92q-27 57 -27 148q0 80 21 141
q22 63 57 103q40 45 86 67q54 26 107 33q61 115 172 185q113 71 260 71q253 0 368 -135q113 -132 113 -382v-98q0 -111 64 -169q62 -56 155 -56h103zM1190 840q-75 0 -139 -32t-105 -79q83 -34 136 -114t53 -209q0 -89 -28 -148q-27 -57 -71 -92h461l2 323q0 94 -23 157
q-24 67 -66 110q-40 42 -98 63q-57 21 -122 21zM811 178q34 0 68 17q32 16 59 46q28 31 42 71q15 42 15 94q0 102 -55 157t-129 55t-129 -55t-55 -157q0 -52 15 -94q14 -40 42 -71q27 -30 59 -46q34 -17 68 -17z" />
    <glyph glyph-name="uniFBAC" unicode="&#x6be;" horiz-adv-x="1431" arabic-form="initial" 
d="M135 406q0 80 21 141q22 63 57 103q40 45 86 67q54 26 107 33q61 115 172 185q113 71 260 71q252 0 367 -135q114 -133 114 -382v-489h-1319q-43 0 -43 23v114q0 21 13 25q12 4 30 4h231q-41 32 -69 92q-27 57 -27 148zM782 406q0 -91 -27 -148t-71 -92h463v323
q0 91 -24 157q-25 68 -65 110q-40 41 -99 63q-57 21 -121 21q-76 0 -140 -32q-62 -31 -104 -79q83 -34 136 -114q52 -79 52 -209zM459 178q33 0 67 17t60 46q28 31 42 71q15 42 15 94q0 102 -55 157t-129 55t-129 -55q-56 -56 -56 -157q0 -49 16 -94q14 -40 42 -71
q27 -30 59 -46q34 -17 68 -17z" />
    <glyph glyph-name="uniFBAD" unicode="&#x6be;" horiz-adv-x="1640" arabic-form="medial" 
d="M1640 166q18 0 30 -4q13 -4 13 -25v-114q0 -23 -43 -23h-104q-28 0 -60 9t-62 27q-29 17 -52 42q-23 24 -35 55h-8q-1 -21 -15 -59q-13 -36 -42 -74h-1262q-43 0 -43 23v114q0 21 13 25q12 4 30 4h231q-41 32 -69 92q-27 57 -27 148q0 80 21 141q22 63 57 103
q40 45 86 67q54 26 107 33q61 115 172 185q113 71 260 71q252 0 367 -135q114 -133 114 -382v-110q0 -105 63 -159t156 -54h102zM782 406q0 -91 -27 -148t-71 -92h463v323q0 91 -24 157q-25 68 -65 110q-40 41 -99 63q-57 21 -121 21q-76 0 -140 -32q-62 -31 -104 -79
q83 -34 136 -114q52 -79 52 -209zM459 178q33 0 67 17t60 46q28 31 42 71q15 42 15 94q0 102 -55 157t-129 55t-129 -55q-56 -56 -56 -157q0 -49 16 -94q14 -40 42 -71q27 -30 59 -46q34 -17 68 -17z" />
    <glyph glyph-name="uniFBAF" unicode="&#x6d2;" horiz-adv-x="1814" arabic-form="final" 
d="M102 -268q0 86 26 166q25 76 83 136q55 57 149 92q90 34 224 34h356v-160h-358q-158 0 -232 -69t-74 -199v-135h1018q131 0 200 73t69 232v141h159v-139q0 -135 -33 -221q-35 -90 -93 -147q-59 -57 -136 -81q-78 -24 -166 -24h-1192v301z" />
    <glyph glyph-name="uniFBB1" unicode="&#x6d3;" horiz-adv-x="1814" arabic-form="final" 
d="M635 510h78v6q-15 16 -27 44q-12 27 -12 56q0 66 39 108t116 42q61 0 104 -36q45 -37 46 -109h-72q-2 30 -22 53q-21 24 -56 24q-31 0 -53 -23t-22 -69q0 -47 25 -71q27 -25 63 -25h147v-74h-354v74zM102 -268q0 86 26 166q25 76 83 136q55 57 149 92q90 34 224 34h356
v-160h-358q-158 0 -232 -69t-74 -199v-135h1018q131 0 200 73t69 232v141h159v-139q0 -135 -33 -221q-35 -90 -93 -147q-59 -57 -136 -81q-78 -24 -166 -24h-1192v301z" />
    <glyph glyph-name="uniFBE8" unicode="&#x649;" horiz-adv-x="714" arabic-form="initial" 
d="M408 166v706h174v-872h-582q-43 0 -43 23v114q0 21 13 25q12 4 30 4h408z" />
    <glyph glyph-name="uniFBE9" unicode="&#x649;" horiz-adv-x="972" arabic-form="medial" 
d="M885 0q-46 0 -89 14q-44 14 -86 39q-38 23 -71 57q-31 32 -45 68q-46 -91 -128 -135q-80 -43 -171 -43h-295q-43 0 -43 23v114q0 21 13 25q12 4 30 4h297q71 0 121 46q51 46 51 159v501h172v-430q0 -62 19 -112t53 -87q33 -36 78 -57q43 -20 94 -20h88q17 0 29 -4
q14 -5 14 -25v-114q0 -23 -43 -23h-88z" />
    <glyph glyph-name="uniFBFD" unicode="&#x6cc;" horiz-adv-x="1540" arabic-form="final" 
d="M809 -569q-197 0 -336 57q-137 56 -227 161q-88 103 -130 250q-43 149 -44 324h164q5 -316 141 -469q137 -153 436 -153q99 0 187 15q91 15 156 48q67 34 106 83q38 48 38 118q0 64 -36 99q-38 36 -84 36q-44 0 -102 16q-59 16 -120 56v157q20 -12 64 -26q51 -16 82 -21
q44 -8 85 -12q37 -4 73 -4h278q18 0 30 -4q13 -4 13 -25v-114q0 -23 -43 -23h-160q26 -29 42 -81q16 -53 16 -91q0 -81 -42 -153q-43 -73 -122 -127q-81 -55 -198 -86t-267 -31z" />
    <glyph glyph-name="uniFBFE" unicode="&#x6cc;" horiz-adv-x="714" arabic-form="initial" 
d="M393 -195h174v-239h-174v239zM43 -195h174v-239h-174v239zM408 166v706h174v-872h-582q-43 0 -43 23v114q0 21 13 25q12 4 30 4h408z" />
    <glyph glyph-name="uniFBFF" unicode="&#x6cc;" horiz-adv-x="972" arabic-form="medial" 
d="M428 -195h174v-239h-174v239zM78 -195h174v-239h-174v239zM885 0q-46 0 -89 14q-44 14 -86 39q-38 23 -71 57q-31 32 -45 68q-46 -91 -128 -135q-80 -43 -171 -43h-295q-43 0 -43 23v114q0 21 13 25q12 4 30 4h297q71 0 121 46q51 46 51 159v501h172v-430q0 -62 19 -112
t53 -87q33 -36 78 -57q43 -20 94 -20h88q17 0 29 -4q14 -5 14 -25v-114q0 -23 -43 -23h-88z" />
    <glyph glyph-name="uniFC31" unicode="&#xfc31;" horiz-adv-x="2521" arabic-form="isolated" 
d="M809 -569q-197 0 -336 57q-137 56 -227 161q-88 103 -130 250q-43 149 -44 324h164q5 -316 141 -469q137 -153 436 -153q99 0 187 15q91 15 156 48q67 34 106 83q38 48 38 118q0 64 -36 99q-38 36 -84 36q-44 0 -102 16q-59 16 -120 56v157q20 -12 64 -26q51 -16 82 -21
q44 -8 85 -12q37 -4 73 -4h342v8q-17 15 -40 50q-22 32 -44 82q-19 41 -35 97q-15 51 -15 99q0 245 128 375q128 129 352 129q222 0 351 -132q128 -131 128 -372t-125 -372q-124 -130 -354 -130h-570q26 -29 42 -81q16 -53 16 -91q0 -81 -42 -153q-43 -73 -122 -127
q-81 -55 -198 -86t-267 -31zM1950 836q-133 0 -216 -92t-83 -242q0 -76 22 -138q23 -63 63 -108q42 -47 94 -70q54 -24 120 -24q131 0 215 86t84 254t-83 251t-216 83zM1899 1466h174v-239h-174v239z" />
    <glyph glyph-name="uniFC32" unicode="&#xfc32;" horiz-adv-x="2521" arabic-form="isolated" 
d="M809 -569q-197 0 -336 57q-137 56 -227 161q-88 103 -130 250q-43 149 -44 324h164q5 -316 141 -469q137 -153 436 -153q99 0 187 15q91 15 156 48q67 34 106 83q38 48 38 118q0 64 -36 99q-38 36 -84 36q-44 0 -102 16q-59 16 -120 56v157q20 -12 64 -26q51 -16 82 -21
q44 -8 85 -12q37 -4 73 -4h342v8q-17 15 -40 50q-22 32 -44 82q-19 41 -35 97q-15 51 -15 99q0 245 128 375q128 129 352 129q222 0 351 -132q128 -131 128 -372t-125 -372q-124 -130 -354 -130h-570q26 -29 42 -81q16 -53 16 -91q0 -81 -42 -153q-43 -73 -122 -127
q-81 -55 -198 -86t-267 -31zM1950 836q-133 0 -216 -92t-83 -242q0 -76 22 -138q23 -63 63 -108q42 -47 94 -70q54 -24 120 -24q131 0 215 86t84 254t-83 251t-216 83zM1899 1466h174v-239h-174v239zM903 -721h174v-240h-174v240zM553 -721h174v-240h-174v240z" />
    <glyph glyph-name="uniFC35" unicode="&#xfc35;" horiz-adv-x="2521" arabic-form="isolated" 
d="M809 -569q-197 0 -336 57q-137 56 -227 161q-88 103 -130 250q-43 149 -44 324h164q5 -316 141 -469q137 -153 436 -153q99 0 187 15q91 15 156 48q67 34 106 83q38 48 38 118q0 64 -36 99q-38 36 -84 36q-44 0 -102 16q-59 16 -120 56v157q20 -12 64 -26q51 -16 82 -21
q44 -8 85 -12q37 -4 73 -4h342v8q-17 15 -40 50q-22 32 -44 82q-19 41 -35 97q-15 51 -15 99q0 245 128 375q128 129 352 129q222 0 351 -132q128 -131 128 -372t-125 -372q-124 -130 -354 -130h-570q26 -29 42 -81q16 -53 16 -91q0 -81 -42 -153q-43 -73 -122 -127
q-81 -55 -198 -86t-267 -31zM1950 836q-133 0 -216 -92t-83 -242q0 -76 22 -138q23 -63 63 -108q42 -47 94 -70q54 -24 120 -24q131 0 215 86t84 254t-83 251t-216 83zM2077 1464h174v-239h-174v239zM1726 1464h175v-239h-175v239z" />
    <glyph glyph-name="uniFC36" unicode="&#xfc36;" horiz-adv-x="2521" arabic-form="isolated" 
d="M809 -569q-197 0 -336 57q-137 56 -227 161q-88 103 -130 250q-43 149 -44 324h164q5 -316 141 -469q137 -153 436 -153q99 0 187 15q91 15 156 48q67 34 106 83q38 48 38 118q0 64 -36 99q-38 36 -84 36q-44 0 -102 16q-59 16 -120 56v157q20 -12 64 -26q51 -16 82 -21
q44 -8 85 -12q37 -4 73 -4h342v8q-17 15 -40 50q-22 32 -44 82q-19 41 -35 97q-15 51 -15 99q0 245 128 375q128 129 352 129q222 0 351 -132q128 -131 128 -372t-125 -372q-124 -130 -354 -130h-570q26 -29 42 -81q16 -53 16 -91q0 -81 -42 -153q-43 -73 -122 -127
q-81 -55 -198 -86t-267 -31zM1950 836q-133 0 -216 -92t-83 -242q0 -76 22 -138q23 -63 63 -108q42 -47 94 -70q54 -24 120 -24q131 0 215 86t84 254t-83 251t-216 83zM2077 1464h174v-239h-174v239zM1726 1464h175v-239h-175v239zM903 -721h174v-240h-174v240zM553 -721
h174v-240h-174v240z" />
    <glyph glyph-name="uniFC3D" unicode="&#xfc3d;" horiz-adv-x="2508" arabic-form="isolated" 
d="M811 -569q-197 0 -336 57q-137 56 -227 161q-88 103 -130 250q-43 149 -44 324h164q5 -316 141 -469q137 -153 436 -153q99 0 187 15q91 15 156 48q67 34 106 83q39 50 39 118q0 63 -37 99q-38 36 -84 36q-44 0 -102 16q-57 16 -119 56v157q21 -13 63 -26q51 -16 82 -21
q44 -8 85 -12q37 -4 73 -4h954v287q0 95 -25 164q-24 67 -65 109q-40 41 -94 60q-57 19 -113 19h-627v166l492 493h233l-485 -493h377q134 0 226 -40q94 -41 152 -109q58 -69 84 -164q25 -93 25 -205v-453h-1016q26 -29 42 -81q16 -53 16 -91q0 -81 -42 -153
q-43 -73 -122 -127q-81 -55 -198 -86t-267 -31z" />
    <glyph glyph-name="uniFC3E" unicode="&#xfc3e;" horiz-adv-x="2508" arabic-form="isolated" 
d="M811 -569q-197 0 -336 57q-137 56 -227 161q-88 103 -130 250q-43 149 -44 324h164q5 -316 141 -469q137 -153 436 -153q99 0 187 15q91 15 156 48q67 34 106 83q39 50 39 118q0 63 -37 99q-38 36 -84 36q-44 0 -102 16q-57 16 -119 56v157q21 -13 63 -26q51 -16 82 -21
q44 -8 85 -12q37 -4 73 -4h954v287q0 95 -25 164q-24 67 -65 109q-40 41 -94 60q-57 19 -113 19h-627v166l492 493h233l-485 -493h377q134 0 226 -40q94 -41 152 -109q58 -69 84 -164q25 -93 25 -205v-453h-1016q26 -29 42 -81q16 -53 16 -91q0 -81 -42 -153
q-43 -73 -122 -127q-81 -55 -198 -86t-267 -31zM870 -721h174v-240h-174v240zM520 -721h174v-240h-174v240z" />
    <glyph glyph-name="uniFC43" unicode="&#xfc43;" horiz-adv-x="1865" arabic-form="isolated" 
d="M1561 166v1298h172v-1464h-353q26 -29 42 -81q16 -53 16 -91q0 -81 -42 -153q-43 -73 -122 -127q-81 -55 -198 -86t-267 -31q-197 0 -336 57q-137 56 -227 161q-88 103 -130 250q-43 149 -44 324h164q5 -316 141 -469q137 -153 436 -153q99 0 187 15q91 15 156 48
q67 34 106 83q38 48 38 118q0 64 -36 99q-38 36 -84 36q-44 0 -102 16q-59 16 -120 56v157q20 -12 64 -26q51 -16 82 -21q44 -8 85 -12q37 -4 73 -4h299z" />
    <glyph glyph-name="uniFC44" unicode="&#xfc44;" horiz-adv-x="1865" arabic-form="isolated" 
d="M1561 166v1298h172v-1464h-353q26 -29 42 -81q16 -53 16 -91q0 -81 -42 -153q-43 -73 -122 -127q-81 -55 -198 -86t-267 -31q-197 0 -336 57q-137 56 -227 161q-88 103 -130 250q-43 149 -44 324h164q5 -316 141 -469q137 -153 436 -153q99 0 187 15q91 15 156 48
q67 34 106 83q38 48 38 118q0 64 -36 99q-38 36 -84 36q-44 0 -102 16q-59 16 -120 56v157q20 -12 64 -26q51 -16 82 -21q44 -8 85 -12q37 -4 73 -4h299zM924 -721h174v-240h-174v240zM573 -721h175v-240h-175v240z" />
    <glyph glyph-name="uniFC53" unicode="&#xfc53;" horiz-adv-x="2639" arabic-form="isolated" 
d="M809 -569q-197 0 -336 57q-137 56 -227 161q-88 103 -130 250q-43 149 -44 324h164q5 -316 141 -469q137 -153 436 -153q99 0 187 15q91 15 156 48q67 34 106 83q38 48 38 118q0 64 -36 99q-38 36 -84 36q-44 0 -102 16q-59 16 -120 56v157q16 -10 61 -25q40 -13 76 -20
q56 -10 80 -13q45 -5 70 -5h195q-42 34 -70 92q-27 57 -27 148q0 80 21 141q22 63 57 103q40 45 86 67q54 26 107 33q61 115 172 185q113 71 260 71q253 0 368 -135q113 -132 113 -382v-489h-1147q26 -29 42 -81q16 -53 16 -91q0 -81 -42 -153q-43 -73 -122 -127
q-81 -55 -198 -86t-267 -31zM1991 406q0 -89 -28 -148q-27 -57 -71 -92h463v323q0 94 -23 157q-24 67 -66 110q-40 42 -98 63q-57 21 -122 21q-75 0 -139 -32t-105 -79q83 -34 136 -114t53 -209zM1667 178q34 0 68 17q32 16 59 46q28 31 42 71q15 42 15 94q0 102 -55 157
t-129 55t-129 -55t-55 -157q0 -52 15 -94q14 -40 42 -71q27 -30 59 -46q34 -17 68 -17z" />
    <glyph glyph-name="uniFC54" unicode="&#xfc54;" horiz-adv-x="2639" arabic-form="isolated" 
d="M809 -569q-197 0 -336 57q-137 56 -227 161q-88 103 -130 250q-43 149 -44 324h164q5 -316 141 -469q137 -153 436 -153q99 0 187 15q91 15 156 48q67 34 106 83q38 48 38 118q0 64 -36 99q-38 36 -84 36q-44 0 -102 16q-59 16 -120 56v157q16 -10 61 -25q40 -13 76 -20
q56 -10 80 -13q45 -5 70 -5h195q-42 34 -70 92q-27 57 -27 148q0 80 21 141q22 63 57 103q40 45 86 67q54 26 107 33q61 115 172 185q113 71 260 71q253 0 368 -135q113 -132 113 -382v-489h-1147q26 -29 42 -81q16 -53 16 -91q0 -81 -42 -153q-43 -73 -122 -127
q-81 -55 -198 -86t-267 -31zM1991 406q0 -89 -28 -148q-27 -57 -71 -92h463v323q0 94 -23 157q-24 67 -66 110q-40 42 -98 63q-57 21 -122 21q-75 0 -139 -32t-105 -79q83 -34 136 -114t53 -209zM1667 178q34 0 68 17q32 16 59 46q28 31 42 71q15 42 15 94q0 102 -55 157
t-129 55t-129 -55t-55 -157q0 -52 15 -94q14 -40 42 -71q27 -30 59 -46q34 -17 68 -17zM838 -721h174v-240h-174v240zM487 -721h175v-240h-175v240z" />
    <glyph glyph-name="uni064C0651" unicode="&#xfc5e;" arabic-form="isolated" 
d="M-94 1843q38 0 74 22q34 21 59 52q-2 1 -8 3t-12 4.5t-12 4.5q-15 6 -37 24q-16 13 -29 36t-13 45q0 53 29 79q28 25 72 25q42 0 73 -28t31 -89q0 -41 -19 -79t-53 -72q-33 -33 -72 -52q-42 -20 -83 -20q-44 0 -74 33q-31 34 -31 90h-34v45h34q21 0 33 -9t12 -36t13 -53
q13 -25 47 -25zM-23 2030q0 -30 27 -49q26 -19 62 -25q18 38 18 67q0 33 -15 51q-14 17 -40 17q-19 0 -35 -16q-17 -17 -17 -45zM-125 1505q-35 0 -59 18q-25 19 -41 74l-21 82l70 21l18 -66q7 -27 22 -45q13 -16 32 -16q25 0 42 16t17 41v6q0 2 -2 14q0 3 -1.5 7t-3 9.5
t-2.5 10.5t-6 21.5t-8 27.5l68 21l16 -66q7 -27 26 -43q17 -14 34 -14q26 0 40 15q13 14 13 38v6q0 1 -2 15l-7 28q-1 3 -6 21t-8 31l70 18q4 -16 10 -38.5t7 -24.5q6 -23 9 -36q1 -5 2.5 -11.5t1.5 -8.5q1 -4 1 -12q0 -47 -35 -76q-34 -28 -86 -28q-25 0 -48 13t-40 42
q0 -51 -35 -81q-34 -30 -88 -30z" />
    <glyph glyph-name="uni064D0651" unicode="&#xfc5f;" arabic-form="isolated" 
d="M-139 1892q-36 0 -60 18q-25 18 -41 75l-20 81l70 21l18 -66q8 -29 21 -45t32 -16q25 0 42 16q18 16 18 41v6q0 2 -2 14l-4 12t-4 15q-1 5 -5.5 22t-7.5 28l68 20l16 -66q7 -27 26 -43q17 -14 33 -14q27 0 40 15q14 16 14 38v7l-2 14q-1 4 -4 14t-4 15q0 1 -5 19.5
t-8 31.5l70 18q3 -13 8.5 -34t7.5 -29q6 -22 9 -36q1 -5 2.5 -11.5t1.5 -8.5q2 -8 2 -12q0 -47 -35 -76q-34 -28 -86 -28q-25 0 -48 13t-40 42q0 -51 -35 -81q-34 -30 -88 -30zM-188 1686l-19 75l412 111l20 -76zM-150 1532l-18 76l412 110l20 -76z" />
    <glyph glyph-name="uni064E0651" unicode="&#xfc60;" arabic-form="isolated" 
d="M-98 1513q-36 0 -60 18q-25 18 -41 75l-20 82l69 20l19 -66q7 -28 21 -45q13 -16 32 -16q25 0 42 16q18 17 18 41v7q0 1 -2 13q-1 3 -4 12.5t-4 15.5q-1 5 -5.5 21.5l-7.5 27.5l68 20l16 -65q7 -27 26 -43q18 -15 33 -15q26 0 40 16t14 38v6q0 1 -0.5 3t-1 5t-0.5 6
q-1 4 -4 14t-4 15l-5 19q-5 19 -8 32l70 18q4 -13 9 -34.5t7 -28.5q6 -23 9 -36q1 -4 2.5 -10.5t1.5 -8.5q1 -4 1 -13q0 -48 -34 -76t-86 -28q-25 0 -48 13t-40 42q0 -51 -35 -81q-34 -30 -88 -30zM-221 1798l-19 76l412 111l21 -76z" />
    <glyph glyph-name="uni064F0651" unicode="&#xfc61;" arabic-form="isolated" 
d="M-141 1405q-37 0 -60 17q-25 18 -41 75l-20 82l69 20l19 -65q8 -28 21 -45q13 -16 32 -16q25 0 42 16q18 17 18 41v6q0 1 -2 13q-1 3 -4 12.5t-4 15.5q-1 5 -5.5 21.5l-7.5 27.5l68 21l16 -66q7 -27 26 -43q17 -14 33 -14q27 0 40 15q14 16 14 38v6q0 1 -0.5 3t-1 5
t-0.5 6q-1 4 -4 14t-4 15q0 1 -5 19.5t-8 31.5l70 19q4 -14 9 -35.5t7 -28.5q6 -22 9 -36q1 -5 2 -11t2 -8q1 -4 1 -12q0 -48 -34 -76q-35 -29 -86 -29q-23 0 -48 14q-23 13 -40 42q0 -51 -35 -81t-88 -30zM-137 1753q46 0 90 26q45 26 74 64q-18 5 -40 16q-27 13 -45 29
q-22 19 -37 44q-16 27 -16 57q0 65 36 97q37 32 89 32q53 0 91 -35t38 -111q0 -48 -24 -98q-23 -47 -65 -89q-41 -41 -90 -65q-50 -24 -101 -24v57zM-49 1982q0 -35 33 -59q35 -25 75 -31q23 46 23 84q0 39 -20 61q-20 21 -48 21q-25 0 -44 -20t-19 -56z" />
    <glyph glyph-name="uni06500651" unicode="&#xfc62;" arabic-form="isolated" 
d="M-125 1753q-36 0 -59 17q-25 18 -41 75l-21 82l70 21l18 -66q7 -27 22 -45q13 -16 32 -16q25 0 42 16t17 41v6q0 1 -2 13l-7 28q-1 5 -6 21.5t-8 27.5l68 21l16 -66q7 -27 26 -43q17 -14 34 -14q26 0 40 15q13 14 13 38v6q0 1 -2 15q0 3 -1 7t-3 10.5t-3 10.5
q-1 3 -6 20.5t-8 30.5l70 19q2 -9 17 -64q7 -27 9 -35q1 -5 2.5 -11.5t1.5 -8.5q1 -4 1 -12q0 -47 -35 -76t-86 -29q-23 0 -48 14q-23 13 -40 42q0 -51 -35 -81q-34 -30 -88 -30zM-178 1524l-19 75l412 111l21 -76z" />
    <glyph glyph-name="uni06510670" unicode="&#xfc63;" arabic-form="isolated" 
d="M-96 1556q-49 0 -87 26t-38 104v90h88v-76q0 -31 9 -49q10 -19 34 -19q21 1 37 17q14 14 14 51v78h90v-80q0 -34 15 -49t36 -15q22 0 33 18q10 17 10 46v78h88v-90q0 -82 -36 -105q-39 -25 -88 -25q-35 0 -64 18t-39 60q-12 -40 -40 -59q-29 -19 -62 -19zM-43 2079h76
v-238h-76v238z" />
    <glyph glyph-name="uniFC86" unicode="&#xfc86;" horiz-adv-x="2056" arabic-form="final" 
d="M809 -569q-197 0 -336 57q-137 56 -227 161q-88 103 -130 250q-43 149 -44 324h164q5 -316 141 -469q137 -153 436 -153q99 0 187 15q91 15 156 48q67 34 106 83q38 48 38 118q0 64 -36 99q-38 36 -84 36q-44 0 -102 16q-59 16 -120 56v157q20 -12 64 -26q51 -16 82 -21
q44 -8 85 -12q37 -4 73 -4h124q71 0 121 46q52 47 52 159v1093h172v-1022q0 -62 19 -112q20 -52 52 -87q33 -36 78 -57q43 -20 94 -20h82q18 0 30 -4q13 -4 13 -25v-114q0 -23 -43 -23h-82q-46 0 -89 14q-44 14 -86 39q-36 21 -70 57q-32 34 -46 68q-47 -92 -129 -135
t-174 -43q26 -29 42 -81q16 -53 16 -91q0 -81 -42 -153q-43 -73 -122 -127q-81 -55 -198 -86t-267 -31z" />
    <glyph glyph-name="uniFC87" unicode="&#xfc87;" horiz-adv-x="2056" arabic-form="final" 
d="M809 -569q-197 0 -336 57q-137 56 -227 161q-88 103 -130 250q-43 149 -44 324h164q5 -316 141 -469q137 -153 436 -153q99 0 187 15q91 15 156 48q67 34 106 83q38 48 38 118q0 64 -36 99q-38 36 -84 36q-44 0 -102 16q-59 16 -120 56v157q20 -12 64 -26q51 -16 82 -21
q44 -8 85 -12q37 -4 73 -4h124q71 0 121 46q52 47 52 159v1093h172v-1022q0 -62 19 -112q20 -52 52 -87q33 -36 78 -57q43 -20 94 -20h82q18 0 30 -4q13 -4 13 -25v-114q0 -23 -43 -23h-82q-46 0 -89 14q-44 14 -86 39q-36 21 -70 57q-32 34 -46 68q-47 -92 -129 -135
t-174 -43q26 -29 42 -81q16 -53 16 -91q0 -81 -42 -153q-43 -73 -122 -127q-81 -55 -198 -86t-267 -31zM877 -721h174v-240h-174v240zM526 -721h174v-240h-174v240z" />
    <glyph glyph-name="uniFDF2" unicode="&#xfdf2;" horiz-adv-x="3051" arabic-form="isolated" 
d="M2746 0v1464h174v-1464h-174zM1194 0q-68 0 -119 19t-95 52t-71 74q-30 45 -47 93q-47 -66 -125 -116q-79 -50 -180 -50q-77 0 -154 24q-75 23 -136 77q-62 54 -98 134q-38 84 -38 197q0 98 24 183q25 89 75 149q52 62 136 99q83 36 199 36h432v-547q0 -75 17 -126
q17 -52 43 -79q28 -30 62 -41q36 -12 75 -12h186q71 0 121 46q51 46 51 159v1093h172v-1022q0 -60 20 -112t52 -87q33 -36 78 -57q43 -20 94 -20h236v1298h172v-1464h-408q-46 0 -89 14q-44 14 -86 39q-38 23 -71 57q-31 32 -45 68q-46 -91 -128 -135q-80 -43 -171 -43h-184
zM557 240q49 0 97 15q47 15 86 46q38 30 62 79q23 46 23 116v309h-260q-53 0 -102 -22q-47 -21 -83 -60t-55 -95q-20 -58 -20 -124t22 -118q21 -50 57 -83t81 -48t92 -15z" />
    <glyph glyph-name="uniFDFA" unicode="&#xfdfa;" horiz-adv-x="2164" arabic-form="isolated" 
d="M2083 895q0 -29 -33 -80q-29 -47 -63 -63q-90 -43 -238 -43q-31 0 -47 1q-24 2 -51 3q-50 -97 -78 -97q-8 0 -8 13q0 30 45 96q-85 33 -99 53q-80 -53 -102 -53q15 -291 51 -360q38 -75 172 -82l4 4q-43 30 -43 88q0 69 66 155q49 66 125 66q56 0 108 -35q50 -33 50 -63
q-54 18 -107 18q-72 0 -133 -29q-53 -29 -53 -55q0 -29 51 -80q52 -53 90 -59q39 5 139 37q103 33 137 51l-34 -76q-55 -29 -153 -57q-87 -25 -161 -40q-64 -13 -80 -13l2 2q-197 0 -243 149q-61 -133 -117 -133q-53 0 -137 90q-130 -115 -404 -115q-29 0 -77 5q-37 2 -66 6
q8 -68 18 -107q18 -72 48 -102q90 -90 360 -90q233 0 338 65q30 76 57 76q8 0 8 -16q0 -30 -24 -91q12 -26 55 -26q54 0 100 24q44 136 68 136q8 0 8 -23q0 -39 -20 -88q63 -27 90 -27q16 0 16 9q0 16 -16 77l35 74q24 -74 24 -106q0 -138 -90 -138q-47 0 -98 39
q-33 -53 -121 -53q-98 0 -98 53q-37 -28 -131 -49q-100 -22 -248 -22q-199 0 -293 57q-118 72 -123 258l-45 -66q-35 -51 -53 -53q24 -45 24 -84q0 -53 -32 -86q-16 -16 -43 -16q-39 0 -125 47q-27 -64 -86 -96q-16 -8 -49 -8q-31 -1 -44 -7l-22 -8q-12 0 -12 10q0 13 49 31
q28 11 50 23q5 3 15.5 8.5t14.5 7.5l69 53q-20 36 -20 82q0 44 37 84q37 43 69 43q8 0 13 -4q37 -20 59 -20q36 0 74 47l47 86q-79 24 -113 55q-59 51 -80 174h-4q-60 -102 -162 -102q-41 0 -79 16q-33 12 -33 25q0 51 88 118q86 65 174 91l-4 34l41 68q8 -114 19 -182
q13 -77 26 -107q26 -65 113 -92l-27 270l39 88l35 -368q108 -12 194 -12q216 0 363 81q24 78 39 78q8 0 8 -18q0 -14 -8 -51q74 -72 120 -72q56 0 86 88l-26 330h-10q-143 0 -170 151h-4q-6 -24 -16 -52t-13 -34q-22 -51 -55 -61l4 -4q20 2 28 2q115 0 115 -82
q0 -59 -51 -94q-172 -121 -328 -121q-93 0 -151 47t-58 135q0 64 33 137q-57 17 -78 88h-4q-33 -104 -113 -104q-96 0 -96 141v17l-55 -50q-15 -14 -80 -14q-100 0 -100 37q0 21 26 63q29 46 51 56l156 76v20l35 74l8 -246q5 -86 66 -86q32 0 59 20q30 23 35 48l-33 233
l37 80l57 -330q18 -43 68 -43q47 0 47 27q0 40 -33 151l-20 66q-14 44 -21 67l27 68q82 -255 82 -321q0 -42 -21 -91q-22 -57 -51 -57q-11 0 -18 6q-15 -45 -15 -80q0 -153 187 -153q147 0 291 98q4 4 4 6q0 10 -78 25l-125 20q-8 6 -8 17q0 21 35 65q123 51 131 109
q2 8 2 12v16q0 94 -11 217q-13 140 -30 256l34 115q50 -434 78 -524q38 -117 148 -135l-10 196l43 92l16 -286q32 12 59 28q34 20 64 45l61 -43q39 -24 80 -30q26 26 55 51t78 61q105 78 144 78q38 0 84 -28q53 -30 53 -68zM2064 4q0 -100 -79 -221q-86 -131 -183 -131
q-45 0 -121 33q-75 29 -75 47q0 8 10 8q12 0 55 -14q46 -17 72 -17h4q136 0 283 217l-15 45q-39 -53 -76 -53q-15 0 -26 7q-12 8 -23 20q-10 12 -16 26q-8 24 -8 37q0 45 30 105q34 63 58 63q26 0 65 -49q45 -55 45 -123zM1552 1079q0 -23 54 -51l-19 -49q-67 22 -67 82
q0 61 53 90q128 75 238 127q115 54 194 82l-18 -51q-61 -21 -238 -105q-197 -96 -197 -125zM975 915q-6 -137 -27 -149l-51 496l45 116zM1233 76l-53 -64l-99 72l-57 -74l-102 74l59 72l96 -72l56 68zM2025 860q0 16 -36 33q-33 18 -54 18q-46 0 -123 -49q-63 -39 -96 -69
q10 0 17 -1t24 -1q46 0 83 4q41 4 85 12q100 18 100 53zM1294 -248q0 -50 -4 -61q-12 -27 -51 -27q-18 0 -29 8q-29 -32 -61 -32q-14 0 -35 18q-16 16 -24 16q-17 0 -76 -34q-59 -37 -144 -37q-90 0 -90 16q0 14 66 14q44 0 60 1q23 1 34 3q27 6 72 33q62 39 82 39
q17 0 39 -16q23 -17 26 -17q31 0 37 35q4 27 23 27q8 0 8 -12v-9q0 -4 -2 -10q6 -8 22 -12q25 0 25 24q0 33 22 33zM1669 1444l-12 -45l-400 -197l9 51zM166 432q0 -20 63 -20q71 0 121 49l-4 78q-180 -72 -180 -107zM664 1362q0 -66 -43 -66q-24 0 -43 17q-39 -31 -62 -31
q-43 0 -43 55q0 41 6 56l13 12v-14q0 -62 34 -62q22 0 39 33l-4 47l19 29l8 -62q4 -33 31 -33t22 31l-6 45l14 21q15 -39 15 -78zM233 911q0 -20 52 -20q57 0 104 27l-2 79q-23 -12 -41 -18q-5 -2 -20 -7.5t-23 -8.5q-30 -14 -52 -29q-18 -12 -18 -23zM320 20q-29 0 -29 -24
q0 -26 53 -55q51 -31 80 -31q14 0 14 12q-8 41 -49 70q-37 28 -69 28zM1974 -2q27 0 31 22q-12 66 -53 66q-30 0 -41 -51q7 -37 63 -37z" />
    <glyph glyph-name="uniFE82" unicode="&#x622;" horiz-adv-x="491" arabic-form="final" 
d="M131 1815q30 0 65 -10q42 -12 62 -19q31 -11 63 -20t62 -9q86 0 86 64h66q0 -73 -41 -116q-40 -42 -101 -42q-33 0 -64 9q-37 10 -63 21q-17 7 -61 20q-30 9 -64 9q-86 0 -86 -65h-65q0 73 41 116q40 42 100 42zM492 166q17 0 29 -4q14 -5 14 -25v-114q0 -23 -43 -23
h-359v1464h174v-1298h185z" />
    <glyph glyph-name="uniFE84" unicode="&#x623;" horiz-adv-x="491" arabic-form="final" 
d="M49 1679h78v7q-15 16 -27 44q-12 27 -12 56q0 65 39 107t117 42q61 0 103 -35q45 -37 46 -110h-71q-1 28 -23 53t-55 25q-32 0 -54 -24q-22 -23 -22 -68q0 -48 26 -72q27 -25 62 -25h147v-73h-354v73zM492 166q17 0 29 -4q14 -5 14 -25v-114q0 -23 -43 -23h-359v1464h174
v-1298h185z" />
    <glyph glyph-name="uniFE86" unicode="&#x624;" horiz-adv-x="1275" arabic-form="final" 
d="M111 1356h77v6q-13 14 -26 44q-12 27 -12 56q0 67 38 108q39 42 117 42q61 0 104 -36q45 -37 46 -110h-72q-2 29 -23 54q-21 24 -55 24q-31 0 -53 -23q-23 -25 -23 -69q0 -48 26 -72q25 -24 62 -24h148v-74h-354v74zM412 -487q-47 0 -78 4q-42 5 -60 10q-14 4 -51 16v166
q25 -13 74 -23q50 -10 84 -10q81 0 154 13q66 12 116 48q49 35 83 98q34 62 52 165h-241q-110 0 -193 37q-85 38 -141 101q-58 66 -88 152q-31 90 -31 189q0 103 24 198q24 96 77 168q54 74 139 117q86 44 213 44q126 0 213 -41t139 -120q53 -79 76 -193q22 -111 22 -259
q0 -45 -2 -119q-1 -56 -6 -108h289q18 0 30 -4q13 -4 13 -25v-114q0 -23 -43 -23h-309q-23 -131 -69 -227q-44 -92 -113 -151t-161 -84q-91 -25 -212 -25zM545 166h262q4 52 6 112q2 78 2 125q0 222 -64 326q-65 105 -204 105q-71 0 -120 -27t-84 -74q-33 -44 -50 -111
q-17 -66 -17 -143q0 -313 269 -313z" />
    <glyph glyph-name="uniFE88" unicode="&#x625;" horiz-adv-x="491" arabic-form="final" 
d="M102 -455h78v6q-12 13 -26 45q-13 29 -13 56q0 65 39 107t117 42q61 0 103 -35q45 -37 46 -110h-71q-1 28 -23 53t-55 25q-31 0 -53 -24q-23 -25 -23 -68q0 -48 26 -72q27 -25 62 -25h148v-73h-355v73zM492 166q17 0 29 -4q14 -5 14 -25v-114q0 -23 -43 -23h-359v1464
h174v-1298h185z" />
    <glyph glyph-name="uniFE8A" unicode="&#x626;" horiz-adv-x="1544" arabic-form="final" 
d="M74 621h78v6q-15 16 -27 44q-12 27 -12 56q0 66 39 108t116 42q60 0 104 -36q45 -37 46 -110h-72q-2 30 -22 53q-22 25 -56 25q-30 0 -53 -24q-22 -23 -22 -68q0 -48 25 -72q26 -24 63 -24h147v-74h-354v74zM813 -569q-197 0 -336 57q-137 56 -227 161q-88 103 -130 250
q-43 149 -44 324h164q5 -316 141 -469q137 -153 436 -153q99 0 188 15t155 48q67 34 106 83q39 50 39 118q0 63 -37 99q-38 36 -84 36q-44 0 -102 16q-57 16 -119 56v157q21 -13 63 -26q51 -16 82 -21q44 -8 85 -12q37 -4 73 -4h278q18 0 30 -4q13 -4 13 -25v-114
q0 -23 -43 -23h-160q26 -29 42 -81q16 -53 16 -91q0 -81 -42 -153q-43 -73 -122 -127q-81 -55 -198 -86t-267 -31z" />
    <glyph glyph-name="uniFE8B" unicode="&#x626;" horiz-adv-x="761" arabic-form="initial" 
d="M274 1102h78v6q-13 14 -26 44q-13 29 -13 56q0 66 39 108t117 42q59 0 103 -36q45 -37 46 -110h-71q-2 29 -23 54q-21 24 -55 24q-31 0 -53 -23q-23 -25 -23 -69q0 -48 26 -72t62 -24h148v-74h-355v74zM408 166v706h174v-872h-582q-43 0 -43 23v114q0 21 13 25q12 4 30 4
h408z" />
    <glyph glyph-name="uniFE8C" unicode="&#x626;" horiz-adv-x="972" arabic-form="medial" 
d="M342 1171h78v7q-15 16 -27 44q-12 27 -12 56q0 65 39 107t117 42q61 0 103 -35q45 -37 46 -110h-72q-2 30 -22 53q-22 25 -55 25q-31 0 -54 -24q-22 -23 -22 -68q0 -48 25 -72q27 -25 63 -25h147v-73h-354v73zM885 0q-46 0 -89 14q-44 14 -86 39q-38 23 -71 57
q-31 32 -45 68q-46 -91 -128 -135q-80 -43 -171 -43h-295q-43 0 -43 23v114q0 21 13 25q12 4 30 4h297q71 0 121 46q51 46 51 159v501h172v-430q0 -62 19 -112t53 -87q33 -36 78 -57q43 -20 94 -20h88q17 0 29 -4q14 -5 14 -25v-114q0 -23 -43 -23h-88z" />
    <glyph glyph-name="uniFE8E" unicode="&#x627;" horiz-adv-x="491" arabic-form="final" 
d="M492 166q17 0 29 -4q14 -5 14 -25v-114q0 -23 -43 -23h-359v1464h174v-1298h185z" />
    <glyph glyph-name="uniFE90" unicode="&#x628;" horiz-adv-x="2162" arabic-form="final" 
d="M948 -195h174v-239h-174v239zM2093 0q-46 0 -89 14q-44 14 -86 39q-38 23 -71 57q-31 32 -45 68q-46 -91 -128 -135q-80 -43 -171 -43h-973q-84 0 -165 25q-80 25 -137 80t-92 147q-34 89 -34 221v137h160v-139q0 -157 69 -231t199 -74h975q71 0 121 46q51 46 51 159v501
h172v-442q0 -58 20 -107q21 -51 53 -83q36 -36 78 -55t93 -19h70q17 0 29 -4q14 -5 14 -25v-114q0 -23 -43 -23h-70z" />
    <glyph glyph-name="uniFE91" unicode="&#x628;" horiz-adv-x="718" arabic-form="initial" 
d="M412 -195h174v-239h-174v239zM408 166v706h174v-872h-582q-43 0 -43 23v114q0 21 13 25q12 4 30 4h408z" />
    <glyph glyph-name="uniFE92" unicode="&#x628;" horiz-adv-x="972" arabic-form="medial" 
d="M473 -195h174v-239h-174v239zM885 0q-46 0 -89 14q-44 14 -86 39q-38 23 -71 57q-31 32 -45 68q-46 -91 -128 -135q-80 -43 -171 -43h-295q-43 0 -43 23v114q0 21 13 25q12 4 30 4h297q71 0 121 46q51 46 51 159v501h172v-430q0 -62 19 -112t53 -87q33 -36 78 -57
q43 -20 94 -20h88q17 0 29 -4q14 -5 14 -25v-114q0 -23 -43 -23h-88z" />
    <glyph glyph-name="uniFE94" unicode="&#x629;" horiz-adv-x="1212" arabic-form="final" 
d="M662 1464h174v-239h-174v239zM311 1464h174v-239h-174v239zM1155 0q-68 0 -119 19t-95 52t-71 74q-30 45 -47 93q-47 -66 -125 -116q-79 -50 -180 -50q-76 0 -153 24q-76 24 -137 77q-62 54 -98 134q-38 84 -38 197q0 98 24 183q25 89 75 149q52 62 136 99q83 36 199 36
h432v-547q0 -75 17 -126q17 -52 43 -79q28 -30 62 -41q36 -12 75 -12h57q18 0 30 -4q13 -4 13 -25v-114q0 -23 -43 -23h-57zM518 240q49 0 97 15q47 15 86 46q37 30 62 79q23 46 23 116v309h-260q-53 0 -102 -22q-47 -21 -83 -60t-55 -95q-20 -58 -20 -124t22 -118
q21 -50 57 -83t81 -48t92 -15z" />
    <glyph glyph-name="uniFE96" unicode="&#x62a;" horiz-adv-x="2162" arabic-form="final" 
d="M1036 1284h174v-240h-174v240zM686 1284h174v-240h-174v240zM2093 0q-46 0 -89 14q-44 14 -86 39q-38 23 -71 57q-31 32 -45 68q-46 -91 -128 -135q-80 -43 -171 -43h-973q-84 0 -165 25q-80 25 -137 80t-92 147q-34 89 -34 221v137h160v-139q0 -157 69 -231t199 -74h975
q71 0 121 46q51 46 51 159v501h172v-442q0 -58 20 -107q21 -51 53 -83q36 -36 78 -55t93 -19h70q17 0 29 -4q14 -5 14 -25v-114q0 -23 -43 -23h-70z" />
    <glyph glyph-name="uniFE97" unicode="&#x62a;" horiz-adv-x="743" arabic-form="initial" 
d="M436 1464h174v-239h-174v239zM86 1464h174v-239h-174v239zM408 166v706h174v-872h-582q-43 0 -43 23v114q0 21 13 25q12 4 30 4h408z" />
    <glyph glyph-name="uniFE98" unicode="&#x62a;" horiz-adv-x="972" arabic-form="medial" 
d="M633 1464h174v-239h-174v239zM283 1464h174v-239h-174v239zM885 0q-46 0 -89 14q-44 14 -86 39q-38 23 -71 57q-31 32 -45 68q-46 -91 -128 -135q-80 -43 -171 -43h-295q-43 0 -43 23v114q0 21 13 25q12 4 30 4h297q71 0 121 46q51 46 51 159v501h172v-430q0 -62 19 -112
t53 -87q33 -36 78 -57q43 -20 94 -20h88q17 0 29 -4q14 -5 14 -25v-114q0 -23 -43 -23h-88z" />
    <glyph glyph-name="uniFE9A" unicode="&#x62b;" horiz-adv-x="2162" arabic-form="final" 
d="M881 1599h174v-239h-174v239zM1055 1284h174v-240h-174v240zM705 1284h174v-240h-174v240zM2093 0q-46 0 -89 14q-44 14 -86 39q-38 23 -71 57q-31 32 -45 68q-46 -91 -128 -135q-80 -43 -171 -43h-973q-84 0 -165 25q-80 25 -137 80t-92 147q-34 89 -34 221v137h160
v-139q0 -157 69 -231t199 -74h975q71 0 121 46q51 46 51 159v501h172v-442q0 -58 20 -107q21 -51 53 -83q36 -36 78 -55t93 -19h70q17 0 29 -4q14 -5 14 -25v-114q0 -23 -43 -23h-70z" />
    <glyph glyph-name="uniFE9B" unicode="&#x62b;" horiz-adv-x="745" arabic-form="initial" 
d="M264 1780h174v-240h-174v240zM438 1464h174v-239h-174v239zM88 1464h174v-239h-174v239zM408 166v706h174v-872h-582q-43 0 -43 23v114q0 21 13 25q12 4 30 4h408z" />
    <glyph glyph-name="uniFE9C" unicode="&#x62b;" horiz-adv-x="972" arabic-form="medial" 
d="M477 1780h174v-240h-174v240zM651 1464h174v-239h-174v239zM301 1464h174v-239h-174v239zM885 0q-46 0 -89 14q-44 14 -86 39q-38 23 -71 57q-31 32 -45 68q-46 -91 -128 -135q-80 -43 -171 -43h-295q-43 0 -43 23v114q0 21 13 25q12 4 30 4h297q71 0 121 46
q51 46 51 159v501h172v-430q0 -62 19 -112t53 -87q33 -36 78 -57q43 -20 94 -20h88q17 0 29 -4q14 -5 14 -25v-114q0 -23 -43 -23h-88z" />
    <glyph glyph-name="uniFE9E" unicode="&#x62c;" horiz-adv-x="1558" arabic-form="final" 
d="M659 -135h158v-215h-158v215zM1049 166v323q0 81 -26 148q-25 64 -70 111q-42 43 -101 68q-57 24 -121 24q-144 0 -244 -79t-124 -208h-168q7 90 50 174q41 80 111 144q68 62 165 99q95 36 210 36q119 0 209 -37q92 -38 155 -107q60 -66 96 -169q34 -98 34 -222v-92
q0 -107 63 -160q64 -53 156 -53h115q17 0 29 -4q14 -5 14 -25v-114q0 -23 -43 -23h-117q-29 0 -62 9q-31 9 -62 27q-28 16 -53 42q-23 23 -36 55h-4q-1 -18 -16 -59q-13 -36 -42 -74h-632q-86 0 -140 -17t-94 -49q-36 -29 -53 -71t-17 -88q0 -69 20 -131q19 -58 66 -131
h-159q-44 56 -69 116q-28 68 -28 152q0 78 27 147q28 72 82 123q59 55 140 84q88 31 202 31h537z" />
    <glyph glyph-name="uniFE9F" unicode="&#x62c;" horiz-adv-x="1490" arabic-form="initial" 
d="M594 -195h174v-239h-174v239zM727 840q-65 0 -130 -24q-68 -25 -119 -62q-54 -39 -91 -91q-36 -50 -47 -110h-168q7 90 53 174q43 78 118 144q72 63 171 99t213 36q127 0 225 -43q97 -43 170 -120q71 -76 115 -180q42 -100 59 -227q11 -82 26 -181q18 -102 20 -113
q2 -12 18 -74q9 -35 18 -68h-1378q-43 0 -43 23v114q0 21 13 25q12 4 30 4h1180q-7 19 -13 45q-12 55 -16 74q-15 82 -16 87q-3 16 -8 43.5t-7 39.5q-30 194 -138 289q-110 96 -255 96z" />
    <glyph glyph-name="uniFEA0" unicode="&#x62c;" horiz-adv-x="1611" arabic-form="medial" 
d="M616 -195h175v-239h-175v239zM1120 166v323q0 83 -37 148q-38 67 -95 111q-56 43 -132 68q-74 24 -147 24q-65 0 -130 -24q-68 -25 -119 -62q-54 -39 -91 -91q-36 -50 -47 -110h-168q7 90 53 174q43 78 118 144q72 63 171 99t213 36q127 0 234 -37q105 -36 186 -107
q79 -68 123 -169q44 -100 44 -222v-92q0 -107 64 -160t156 -53h96q17 0 29 -4q14 -5 14 -25v-114q0 -23 -43 -23h-99q-29 0 -60 9t-61 27q-31 19 -53 42q-21 22 -34 55h-9q-1 -21 -15 -59q-13 -36 -42 -74h-1239q-43 0 -43 23v114q0 21 13 25q12 4 30 4h1120z" />
    <glyph glyph-name="uniFEA2" unicode="&#x62d;" horiz-adv-x="1558" arabic-form="final" 
d="M1049 166v323q0 81 -26 148q-25 64 -70 111q-42 43 -101 68q-57 24 -121 24q-144 0 -244 -79t-124 -208h-168q7 90 50 174q41 80 111 144q68 62 165 99q95 36 210 36q119 0 209 -37q92 -38 155 -107q60 -66 96 -169q34 -98 34 -222v-92q0 -107 63 -160q64 -53 156 -53
h115q17 0 29 -4q14 -5 14 -25v-114q0 -23 -43 -23h-117q-29 0 -62 9q-31 9 -62 27q-28 16 -53 42q-23 23 -36 55h-4q-1 -18 -16 -59q-13 -36 -42 -74h-632q-86 0 -140 -17t-94 -49q-36 -29 -53 -71t-17 -88q0 -69 20 -131q19 -58 66 -131h-159q-44 56 -69 116
q-28 68 -28 152q0 78 27 147q28 72 82 123q59 55 140 84q88 31 202 31h537z" />
    <glyph glyph-name="uniFEA3" unicode="&#x62d;" horiz-adv-x="1490" arabic-form="initial" 
d="M727 840q-65 0 -130 -24q-68 -25 -119 -62q-54 -39 -91 -91q-36 -50 -47 -110h-168q7 90 53 174q43 78 118 144q72 63 171 99t213 36q127 0 225 -43q97 -43 170 -120q71 -76 115 -180q42 -100 59 -227q11 -82 26 -181q18 -102 20 -113q2 -12 18 -74q9 -35 18 -68h-1378
q-43 0 -43 23v114q0 21 13 25q12 4 30 4h1180q-7 19 -13 45q-12 55 -16 74q-15 82 -16 87q-3 16 -8 43.5t-7 39.5q-30 194 -138 289q-110 96 -255 96z" />
    <glyph glyph-name="uniFEA4" unicode="&#x62d;" horiz-adv-x="1611" arabic-form="medial" 
d="M1120 166v323q0 83 -37 148q-38 67 -95 111q-56 43 -132 68q-74 24 -147 24q-65 0 -130 -24q-68 -25 -119 -62q-54 -39 -91 -91q-36 -50 -47 -110h-168q7 90 53 174q43 78 118 144q72 63 171 99t213 36q127 0 234 -37q105 -36 186 -107q79 -68 123 -169q44 -100 44 -222
v-92q0 -107 64 -160t156 -53h96q17 0 29 -4q14 -5 14 -25v-114q0 -23 -43 -23h-99q-29 0 -60 9t-61 27q-31 19 -53 42q-21 22 -34 55h-9q-1 -21 -15 -59q-13 -36 -42 -74h-1239q-43 0 -43 23v114q0 21 13 25q12 4 30 4h1120z" />
    <glyph glyph-name="uniFEA6" unicode="&#x62e;" horiz-adv-x="1558" arabic-form="final" 
d="M649 1464h174v-239h-174v239zM1049 166v323q0 81 -26 148q-25 64 -70 111q-42 43 -101 68q-57 24 -121 24q-144 0 -244 -79t-124 -208h-168q7 90 50 174q41 80 111 144q68 62 165 99q95 36 210 36q119 0 209 -37q92 -38 155 -107q60 -66 96 -169q34 -98 34 -222v-92
q0 -107 63 -160q64 -53 156 -53h115q17 0 29 -4q14 -5 14 -25v-114q0 -23 -43 -23h-117q-29 0 -62 9q-31 9 -62 27q-28 16 -53 42q-23 23 -36 55h-4q-1 -18 -16 -59q-13 -36 -42 -74h-632q-86 0 -140 -17t-94 -49q-36 -29 -53 -71t-17 -88q0 -69 20 -131q19 -58 66 -131
h-159q-44 56 -69 116q-28 68 -28 152q0 78 27 147q28 72 82 123q59 55 140 84q88 31 202 31h537z" />
    <glyph glyph-name="uniFEA7" unicode="&#x62e;" horiz-adv-x="1490" arabic-form="initial" 
d="M649 1464h174v-239h-174v239zM727 840q-65 0 -130 -24q-68 -25 -119 -62q-54 -39 -91 -91q-36 -50 -47 -110h-168q7 90 53 174q43 78 118 144q72 63 171 99t213 36q127 0 225 -43q97 -43 170 -120q71 -76 115 -180q42 -100 59 -227q11 -82 26 -181q18 -102 20 -113
q2 -12 18 -74q9 -35 18 -68h-1378q-43 0 -43 23v114q0 21 13 25q12 4 30 4h1180q-7 19 -13 45q-12 55 -16 74q-15 82 -16 87q-3 16 -8 43.5t-7 39.5q-30 194 -138 289q-110 96 -255 96z" />
    <glyph glyph-name="uniFEA8" unicode="&#x62e;" horiz-adv-x="1611" arabic-form="medial" 
d="M647 1466h174v-239h-174v239zM1120 166v323q0 83 -37 148q-38 67 -95 111q-56 43 -132 68q-74 24 -147 24q-65 0 -130 -24q-68 -25 -119 -62q-54 -39 -91 -91q-36 -50 -47 -110h-168q7 90 53 174q43 78 118 144q72 63 171 99t213 36q127 0 234 -37q105 -36 186 -107
q79 -68 123 -169q44 -100 44 -222v-92q0 -107 64 -160t156 -53h96q17 0 29 -4q14 -5 14 -25v-114q0 -23 -43 -23h-99q-29 0 -60 9t-61 27q-31 19 -53 42q-21 22 -34 55h-9q-1 -21 -15 -59q-13 -36 -42 -74h-1239q-43 0 -43 23v114q0 21 13 25q12 4 30 4h1120z" />
    <glyph glyph-name="uniFEAA" unicode="&#x62f;" horiz-adv-x="1183" arabic-form="final" 
d="M1184 166q17 0 29 -4q14 -5 14 -25v-114q0 -23 -43 -23h-99q-29 0 -60 9t-61 27q-31 19 -53 42q-21 22 -34 55h-9q-1 -21 -15 -59q-13 -36 -42 -74h-709v166h594v260q0 78 -17 143q-19 72 -56 122q-39 53 -99 84q-61 32 -143 32h-188v164h157q109 0 207 -31
q94 -30 164 -97q69 -66 108 -171t39 -252v-29q0 -111 64 -169q62 -56 155 -56h97z" />
    <glyph glyph-name="uniFEAC" unicode="&#x630;" horiz-adv-x="1183" arabic-form="final" 
d="M272 1464h174v-239h-174v239zM1184 166q17 0 29 -4q14 -5 14 -25v-114q0 -23 -43 -23h-99q-29 0 -60 9t-61 27q-31 19 -53 42q-21 22 -34 55h-9q-1 -21 -15 -59q-13 -36 -42 -74h-709v166h594v260q0 78 -17 143q-19 72 -56 122q-39 53 -99 84q-61 32 -143 32h-188v164
h157q109 0 207 -31q94 -30 164 -97q69 -66 108 -171t39 -252v-29q0 -111 64 -169q62 -56 155 -56h97z" />
    <glyph glyph-name="uniFEAE" unicode="&#x631;" horiz-adv-x="847" arabic-form="final" 
d="M848 166q18 0 30 -4q13 -4 13 -25v-114q0 -23 -43 -23h-109q-32 0 -65 10q-38 11 -67 31q-30 20 -55 48q-24 27 -30 63v-160q0 -235 -73 -357t-250 -122q-40 0 -73 5q-26 4 -48 13q-22 7 -37 18v166q62 -34 133 -34q44 0 75 15t54 51q22 35 34 95q11 55 11 150v880h174
v-481q0 -111 64 -169q62 -56 155 -56h107z" />
    <glyph glyph-name="uniFEB0" unicode="&#x632;" horiz-adv-x="847" arabic-form="final" 
d="M348 1464h174v-239h-174v239zM848 166q18 0 30 -4q13 -4 13 -25v-114q0 -23 -43 -23h-109q-32 0 -65 10q-38 11 -67 31q-30 20 -55 48q-24 27 -30 63v-160q0 -235 -73 -357t-250 -122q-40 0 -73 5q-26 4 -48 13q-22 7 -37 18v166q62 -34 133 -34q44 0 75 15t54 51
q22 35 34 95q11 55 11 150v880h174v-481q0 -111 64 -169q62 -56 155 -56h107z" />
    <glyph glyph-name="uniFEB2" unicode="&#x633;" horiz-adv-x="3076" arabic-form="final" 
d="M778 -487q-340 0 -523 223t-183 659v135h170v-135q0 -361 127 -537q127 -177 405 -177q141 0 248 36q110 37 186 122q77 86 117 221q41 138 41 335v391h172v-421q0 -110 56 -157q57 -48 163 -48q107 0 159 48t52 157v464h174v-460q0 -109 64 -159t180 -50q106 0 159 48
q52 48 52 157v507h174v-503q0 -93 52 -148t126 -55h127q18 0 30 -4q13 -4 13 -25v-114q0 -23 -43 -23h-127q-27 0 -62 12q-33 11 -65 34q-31 22 -55 53q-26 34 -33 71h-8q-46 -88 -131 -132t-187 -44q-36 0 -86 8q-41 7 -92 27q-46 18 -83 48q-39 31 -56 73h-6
q-46 -78 -128 -117q-81 -39 -177 -39q-39 0 -77 7q-40 7 -76 24t-64 43q-29 27 -43 63q-22 -128 -73 -244q-49 -111 -139 -195q-89 -83 -219 -131q-131 -48 -311 -48z" />
    <glyph glyph-name="uniFEB3" unicode="&#x633;" horiz-adv-x="1857" arabic-form="initial" 
d="M195 166q54 0 84 45t30 160v420h174v-426q0 -111 58 -158t161 -47q106 0 159 48q52 48 52 157v464h174v-458q0 -111 50 -158t123 -47h288v706h176v-872h-462q-28 0 -61 10t-65 30q-33 20 -58 50q-26 31 -34 72h-6q-47 -86 -130 -127q-84 -41 -183 -41q-38 0 -83 8
q-38 7 -79 28q-37 19 -64 49q-29 32 -40 73h-6q-53 -152 -232 -152h-221q-43 0 -43 23v114q0 21 13 25q12 4 30 4h195z" />
    <glyph glyph-name="uniFEB4" unicode="&#x633;" horiz-adv-x="2021" arabic-form="medial" 
d="M195 166q54 0 84 45t30 160v420h174v-426q0 -109 57 -157t162 -48q106 0 159 48q52 48 52 157v464h174v-456q0 -111 65 -162q64 -51 179 -51q107 0 159 48t52 157v507h174v-503q0 -94 53 -149q53 -54 125 -54h127q18 0 30 -4q13 -4 13 -25v-114q0 -23 -43 -23h-127
q-28 0 -62 12q-33 11 -65 34q-31 22 -55 53q-26 34 -33 71h-8q-46 -88 -131 -132t-186 -44q-36 0 -86 8q-41 7 -92 27q-46 18 -83 48q-40 32 -57 73h-6q-46 -78 -128 -117q-81 -39 -177 -39q-38 0 -83 8q-38 7 -79 28q-37 19 -64 49q-29 32 -40 73h-6q-53 -152 -232 -152
h-221q-43 0 -43 23v114q0 21 13 25q12 4 30 4h195z" />
    <glyph glyph-name="uniFEB6" unicode="&#x634;" horiz-adv-x="3076" arabic-form="final" 
d="M1989 1780h174v-240h-174v240zM2163 1464h174v-239h-174v239zM1812 1464h175v-239h-175v239zM778 -487q-340 0 -523 223t-183 659v135h170v-135q0 -361 127 -537q127 -177 405 -177q141 0 248 36q110 37 186 122q77 86 117 221q41 138 41 335v391h172v-421
q0 -110 56 -157q57 -48 163 -48q107 0 159 48t52 157v464h174v-460q0 -109 64 -159t180 -50q106 0 159 48q52 48 52 157v507h174v-503q0 -93 52 -148t126 -55h127q18 0 30 -4q13 -4 13 -25v-114q0 -23 -43 -23h-127q-27 0 -62 12q-33 11 -65 34q-31 22 -55 53q-26 34 -33 71
h-8q-46 -88 -131 -132t-187 -44q-36 0 -86 8q-41 7 -92 27q-46 18 -83 48q-39 31 -56 73h-6q-46 -78 -128 -117q-81 -39 -177 -39q-39 0 -77 7q-40 7 -76 24t-64 43q-29 27 -43 63q-22 -128 -73 -244q-49 -111 -139 -195q-89 -83 -219 -131q-131 -48 -311 -48z" />
    <glyph glyph-name="uniFEB7" unicode="&#x634;" horiz-adv-x="1857" arabic-form="initial" 
d="M915 1780h175v-240h-175v240zM1090 1464h174v-239h-174v239zM739 1464h174v-239h-174v239zM195 166q54 0 84 45t30 160v420h174v-426q0 -111 58 -158t161 -47q106 0 159 48q52 48 52 157v464h174v-458q0 -111 50 -158t123 -47h288v706h176v-872h-462q-28 0 -61 10t-65 30
q-33 20 -58 50q-26 31 -34 72h-6q-47 -86 -130 -127q-84 -41 -183 -41q-38 0 -83 8q-38 7 -79 28q-37 19 -64 49q-29 32 -40 73h-6q-53 -152 -232 -152h-221q-43 0 -43 23v114q0 21 13 25q12 4 30 4h195z" />
    <glyph glyph-name="uniFEB8" unicode="&#x634;" horiz-adv-x="2021" arabic-form="medial" 
d="M905 1780h174v-240h-174v240zM1079 1464h174v-239h-174v239zM729 1464h174v-239h-174v239zM195 166q54 0 84 45t30 160v420h174v-426q0 -109 57 -157t162 -48q106 0 159 48q52 48 52 157v464h174v-456q0 -111 65 -162q64 -51 179 -51q107 0 159 48t52 157v507h174v-503
q0 -94 53 -149q53 -54 125 -54h127q18 0 30 -4q13 -4 13 -25v-114q0 -23 -43 -23h-127q-28 0 -62 12q-33 11 -65 34q-31 22 -55 53q-26 34 -33 71h-8q-46 -88 -131 -132t-186 -44q-36 0 -86 8q-41 7 -92 27q-46 18 -83 48q-40 32 -57 73h-6q-46 -78 -128 -117
q-81 -39 -177 -39q-38 0 -83 8q-38 7 -79 28q-37 19 -64 49q-29 32 -40 73h-6q-53 -152 -232 -152h-221q-43 0 -43 23v114q0 21 13 25q12 4 30 4h195z" />
    <glyph glyph-name="uniFEBA" unicode="&#x635;" horiz-adv-x="3172" arabic-form="final" 
d="M778 -487q-340 0 -523 223t-183 659v133h172v-133q0 -358 127 -536t403 -178q138 0 248 43t186 131q77 89 117 223q41 137 41 317v420h172v-416h8q61 91 148 194q85 100 185 181q101 82 219 134q120 53 249 53q235 0 371 -128q135 -127 135 -376v-66q0 -112 63 -169
q62 -56 156 -56h100q18 0 30 -4q13 -4 13 -25v-114q0 -23 -43 -23h-102q-28 0 -60 9t-62 27q-28 16 -53 42q-23 23 -36 55h-6q-1 -21 -15 -59q-13 -36 -42 -74h-1311q-33 -101 -90 -190q-56 -87 -144 -155q-89 -69 -202 -105q-115 -37 -271 -37zM2339 795q-81 0 -161 -37
q-87 -40 -158 -96q-76 -60 -147 -132q-74 -75 -128 -141q-47 -57 -100 -130q-43 -60 -66 -93h1104v297q0 79 -28 144q-28 64 -73 104q-47 41 -110 62q-66 22 -133 22z" />
    <glyph glyph-name="uniFEBB" unicode="&#x635;" horiz-adv-x="1871" arabic-form="initial" 
d="M1759 0h-1759q-43 0 -43 23v114q0 21 13 25q12 4 30 4h279v649h174v-405h8q61 89 147 190q82 96 185 178q102 81 216 131q118 52 244 52q235 0 371 -128q135 -127 135 -376v-457zM1245 795q-81 0 -161 -37q-84 -39 -157 -96q-81 -63 -148 -132q-74 -75 -128 -141
q-47 -57 -100 -130q-43 -60 -66 -93h1104v297q0 81 -27 144t-74 104t-110 62q-66 22 -133 22z" />
    <glyph glyph-name="uniFEBC" unicode="&#x635;" horiz-adv-x="2078" arabic-form="medial" 
d="M0 0q-43 0 -43 23v114q0 21 13 25q12 4 30 4h279v649h174v-405h8q61 89 147 190q82 96 185 178q102 81 216 131q118 52 244 52q235 0 371 -128q135 -127 135 -376v-78q0 -107 64 -160t155 -53h101q17 0 29 -4q14 -5 14 -25v-114q0 -23 -43 -23h-103q-28 0 -60 9t-62 27
q-29 17 -52 42q-23 24 -35 55h-8q-1 -21 -15 -59q-13 -36 -42 -74h-1702zM1245 795q-81 0 -161 -37q-84 -39 -157 -96q-81 -63 -148 -132q-74 -75 -128 -141q-47 -57 -100 -130q-43 -60 -66 -93h1104v297q0 81 -27 144t-74 104t-110 62q-66 22 -133 22z" />
    <glyph glyph-name="uniFEBE" unicode="&#x636;" horiz-adv-x="3172" arabic-form="final" 
d="M1692 1464h174v-239h-174v239zM778 -487q-340 0 -523 223t-183 659v133h172v-133q0 -358 127 -536t403 -178q138 0 248 43t186 131q77 89 117 223q41 137 41 317v420h172v-416h8q61 91 148 194q85 100 185 181q101 82 219 134q120 53 249 53q235 0 371 -128
q135 -127 135 -376v-66q0 -112 63 -169q62 -56 156 -56h100q18 0 30 -4q13 -4 13 -25v-114q0 -23 -43 -23h-102q-28 0 -60 9t-62 27q-28 16 -53 42q-23 23 -36 55h-6q-1 -21 -15 -59q-13 -36 -42 -74h-1311q-33 -101 -90 -190q-56 -87 -144 -155q-89 -69 -202 -105
q-115 -37 -271 -37zM2339 795q-81 0 -161 -37q-87 -40 -158 -96q-76 -60 -147 -132q-74 -75 -128 -141q-47 -57 -100 -130q-43 -60 -66 -93h1104v297q0 79 -28 144q-28 64 -73 104q-47 41 -110 62q-66 22 -133 22z" />
    <glyph glyph-name="uniFEBF" unicode="&#x636;" horiz-adv-x="1871" arabic-form="initial" 
d="M545 1407h174v-240h-174v240zM1759 0h-1759q-43 0 -43 23v114q0 21 13 25q12 4 30 4h279v649h174v-405h8q61 89 147 190q82 96 185 178q102 81 216 131q118 52 244 52q235 0 371 -128q135 -127 135 -376v-457zM1245 795q-81 0 -161 -37q-84 -39 -157 -96
q-81 -63 -148 -132q-74 -75 -128 -141q-47 -57 -100 -130q-43 -60 -66 -93h1104v297q0 81 -27 144t-74 104t-110 62q-66 22 -133 22z" />
    <glyph glyph-name="uniFEC0" unicode="&#x636;" horiz-adv-x="2078" arabic-form="medial" 
d="M547 1407h174v-240h-174v240zM0 0q-43 0 -43 23v114q0 21 13 25q12 4 30 4h279v649h174v-405h8q61 89 147 190q82 96 185 178q102 81 216 131q118 52 244 52q235 0 371 -128q135 -127 135 -376v-78q0 -107 64 -160t155 -53h101q17 0 29 -4q14 -5 14 -25v-114
q0 -23 -43 -23h-103q-28 0 -60 9t-62 27q-29 17 -52 42q-23 24 -35 55h-8q-1 -21 -15 -59q-13 -36 -42 -74h-1702zM1245 795q-81 0 -161 -37q-84 -39 -157 -96q-81 -63 -148 -132q-74 -75 -128 -141q-47 -57 -100 -130q-43 -60 -66 -93h1104v297q0 81 -27 144t-74 104
t-110 62q-66 22 -133 22z" />
    <glyph glyph-name="uniFEC2" unicode="&#x637;" horiz-adv-x="1986" arabic-form="final" 
d="M61 166h154v1298h174v-1011h8q68 93 148 180q87 94 178 163q94 70 206 118q111 47 230 47q235 0 371 -128q135 -127 135 -376v-78q0 -104 64 -159q63 -54 155 -54h103q17 0 29 -4q14 -5 14 -25v-114q0 -23 -43 -23h-105q-28 0 -60 9q-31 9 -62 26q-30 16 -52 40
q-23 25 -35 54h-8q-5 -25 -16 -58q-12 -36 -41 -71h-1547v166zM1151 795q-81 0 -161 -37q-84 -39 -157 -96q-81 -63 -148 -132q-74 -75 -128 -141q-47 -57 -100 -130q-43 -60 -66 -93h1104v297q0 79 -28 144q-28 64 -73 104q-47 41 -110 62q-66 22 -133 22z" />
    <glyph glyph-name="uniFEC3" unicode="&#x637;" horiz-adv-x="1757" arabic-form="initial" 
d="M1645 0h-1645q-43 0 -43 23v114q0 21 13 25q12 4 30 4h195v1298h174v-1011h8q72 98 147 180q87 94 178 163q94 70 206 118q111 47 231 47q234 0 370 -128t136 -376v-457zM1130 795q-80 0 -160 -37q-87 -40 -158 -96q-76 -60 -147 -132q-74 -75 -128 -141
q-55 -67 -101 -130q-27 -37 -65 -93h1104v297q0 79 -28 144q-27 63 -74 104q-48 42 -109 62q-66 22 -134 22z" />
    <glyph glyph-name="uniFEC4" unicode="&#x637;" horiz-adv-x="1966" arabic-form="medial" 
d="M1966 166q18 0 30 -4q13 -4 13 -25v-114q0 -23 -43 -23h-104q-30 0 -61 9q-29 8 -61 26q-30 16 -52 40q-23 25 -35 54h-8q-3 -17 -17 -58q-12 -36 -41 -71h-1587q-43 0 -43 23v114q0 21 13 25q12 4 30 4h195v1298h174v-1011h8q72 98 147 180q87 94 178 163q94 70 206 118
q111 47 231 47q234 0 370 -128t136 -376v-78q0 -107 63 -160q64 -53 156 -53h102zM1130 795q-80 0 -160 -37q-87 -40 -158 -96q-76 -60 -147 -132q-74 -75 -128 -141q-55 -67 -101 -130q-27 -37 -65 -93h1104v297q0 79 -28 144q-27 63 -74 104q-48 42 -109 62
q-66 22 -134 22z" />
    <glyph glyph-name="uniFEC6" unicode="&#x638;" horiz-adv-x="1986" arabic-form="final" 
d="M819 1407h174v-240h-174v240zM61 166h154v1298h174v-1011h8q68 93 148 180q87 94 178 163q94 70 206 118q111 47 230 47q235 0 371 -128q135 -127 135 -376v-78q0 -104 64 -159q63 -54 155 -54h103q17 0 29 -4q14 -5 14 -25v-114q0 -23 -43 -23h-105q-28 0 -60 9
q-31 9 -62 26q-30 16 -52 40q-23 25 -35 54h-8q-5 -25 -16 -58q-12 -36 -41 -71h-1547v166zM1151 795q-81 0 -161 -37q-84 -39 -157 -96q-81 -63 -148 -132q-74 -75 -128 -141q-47 -57 -100 -130q-43 -60 -66 -93h1104v297q0 79 -28 144q-28 64 -73 104q-47 41 -110 62
q-66 22 -133 22z" />
    <glyph glyph-name="uniFEC7" unicode="&#x638;" horiz-adv-x="1757" arabic-form="initial" 
d="M776 1407h174v-240h-174v240zM1645 0h-1645q-43 0 -43 23v114q0 21 13 25q12 4 30 4h195v1298h174v-1011h8q72 98 147 180q87 94 178 163q94 70 206 118q111 47 231 47q234 0 370 -128t136 -376v-457zM1130 795q-80 0 -160 -37q-87 -40 -158 -96q-76 -60 -147 -132
q-74 -75 -128 -141q-55 -67 -101 -130q-27 -37 -65 -93h1104v297q0 79 -28 144q-27 63 -74 104q-48 42 -109 62q-66 22 -134 22z" />
    <glyph glyph-name="uniFEC8" unicode="&#x638;" horiz-adv-x="1966" arabic-form="medial" 
d="M780 1407h174v-240h-174v240zM1966 166q18 0 30 -4q13 -4 13 -25v-114q0 -23 -43 -23h-104q-30 0 -61 9q-29 8 -61 26q-30 16 -52 40q-23 25 -35 54h-8q-3 -17 -17 -58q-12 -36 -41 -71h-1587q-43 0 -43 23v114q0 21 13 25q12 4 30 4h195v1298h174v-1011h8q72 98 147 180
q87 94 178 163q94 70 206 118q111 47 231 47q234 0 370 -128t136 -376v-78q0 -107 63 -160q64 -53 156 -53h102zM1130 795q-80 0 -160 -37q-87 -40 -158 -96q-76 -60 -147 -132q-74 -75 -128 -141q-55 -67 -101 -130q-27 -37 -65 -93h1104v297q0 79 -28 144q-27 63 -74 104
q-48 42 -109 62q-66 22 -134 22z" />
    <glyph glyph-name="uniFECA" unicode="&#x639;" horiz-adv-x="1531" arabic-form="final" 
d="M786 154q62 0 120 42t105 105q46 62 73 138q28 78 28 141q0 88 -42 141t-155 53h-491q22 -20 46 -75q19 -43 50 -122q27 -69 57 -144q32 -79 62 -137q32 -61 70 -102q37 -40 77 -40zM526 166v8q-34 33 -63 90q-29 58 -56 127q-35 89 -55 145q-30 84 -55 144
q-29 71 -60 128q-30 56 -69 95v37h778q85 0 152 -29q65 -28 108 -77q44 -50 65 -117q21 -68 21 -146q0 -46 -14 -94q-16 -56 -41 -105q-31 -62 -62 -106q-38 -54 -79 -92v-10h55h86q64 0 99 1t96 1h71h29q18 0 30 -4q13 -4 13 -25v-114q0 -23 -43 -23h-1014q-136 0 -209 -60
t-73 -180q0 -62 23 -124q22 -60 65 -123h-166q-38 48 -66 112q-31 71 -31 135q0 90 27 165t80 128t136 83t196 30h26z" />
    <glyph glyph-name="uniFECB" unicode="&#x639;" horiz-adv-x="1232" arabic-form="initial" 
d="M410 166v8q-23 23 -46 57q-30 45 -48 85q-18 41 -35 104q-15 56 -15 110q0 110 33 199q34 90 92 150q59 60 143 94q82 33 183 33t172 -37t121 -96q49 -57 76 -132q29 -78 40 -147h-168q-6 48 -25 90t-51 77q-30 32 -74 53q-43 20 -91 20q-49 0 -97 -18q-51 -19 -86 -54
q-39 -39 -61 -94q-22 -56 -22 -138q0 -83 20 -147q22 -69 58 -116q36 -45 91 -74q52 -27 113 -27h408v-166h-1141q-43 0 -43 23v114q0 21 13 25q12 4 30 4h410z" />
    <glyph glyph-name="uniFECC" unicode="&#x639;" horiz-adv-x="1509" arabic-form="medial" 
d="M803 154q61 0 120 42q56 40 104 105q47 64 74 138q27 75 27 141q0 88 -42 141t-154 53h-492q22 -20 46 -75q27 -61 51 -122q5 -13 24.5 -64t31.5 -80q32 -79 62 -137q32 -61 70 -102q37 -40 78 -40zM543 166v8q-36 35 -64 90q-29 58 -56 127q-23 58 -54 145
q-24 66 -56 144q-29 71 -60 128q-30 56 -69 95v37h779q84 0 151 -29t109 -77q43 -49 64 -117q22 -71 22 -146q0 -43 -15 -94q-16 -56 -41 -105q-31 -62 -62 -106q-38 -54 -79 -92v-10h51h78q61 0 92 1t86 1h64h26q18 0 30 -4q13 -4 13 -25v-114q0 -23 -43 -23h-1509
q-43 0 -43 23v114q0 21 13 25q12 4 30 4h543z" />
    <glyph glyph-name="uniFECE" unicode="&#x63a;" horiz-adv-x="1531" arabic-form="final" 
d="M786 154q62 0 120 42t105 105q46 62 73 138q28 78 28 141q0 88 -42 141t-155 53h-491q22 -20 46 -75q19 -43 50 -122q27 -69 57 -144q32 -79 62 -137q32 -61 70 -102q37 -40 77 -40zM526 166v8q-34 33 -63 90q-29 58 -56 127q-35 89 -55 145q-30 84 -55 144
q-29 71 -60 128q-30 56 -69 95v37h778q85 0 152 -29q65 -28 108 -77q44 -50 65 -117q21 -68 21 -146q0 -46 -14 -94q-16 -56 -41 -105q-31 -62 -62 -106q-38 -54 -79 -92v-10h55h86q64 0 99 1t96 1h71h29q18 0 30 -4q13 -4 13 -25v-114q0 -23 -43 -23h-1014q-136 0 -209 -60
t-73 -180q0 -62 23 -124q22 -60 65 -123h-166q-38 48 -66 112q-31 71 -31 135q0 90 27 165t80 128t136 83t196 30h26zM743 1464h175v-239h-175v239z" />
    <glyph glyph-name="uniFECF" unicode="&#x63a;" horiz-adv-x="1232" arabic-form="initial" 
d="M623 1464h174v-239h-174v239zM410 166v8q-23 23 -46 57q-30 45 -48 85q-18 41 -35 104q-15 56 -15 110q0 110 33 199q34 90 92 150q59 60 143 94q82 33 183 33t172 -37t121 -96q49 -57 76 -132q29 -78 40 -147h-168q-6 48 -25 90t-51 77q-30 32 -74 53q-43 20 -91 20
q-49 0 -97 -18q-51 -19 -86 -54q-39 -39 -61 -94q-22 -56 -22 -138q0 -83 20 -147q22 -69 58 -116q36 -45 91 -74q52 -27 113 -27h408v-166h-1141q-43 0 -43 23v114q0 21 13 25q12 4 30 4h410z" />
    <glyph glyph-name="uniFED0" unicode="&#x63a;" horiz-adv-x="1509" arabic-form="medial" 
d="M803 154q61 0 120 42q56 40 104 105q47 64 74 138q27 75 27 141q0 88 -42 141t-154 53h-492q22 -20 46 -75q27 -61 51 -122q5 -13 24.5 -64t31.5 -80q32 -79 62 -137q32 -61 70 -102q37 -40 78 -40zM543 166v8q-36 35 -64 90q-29 58 -56 127q-23 58 -54 145
q-24 66 -56 144q-29 71 -60 128q-30 56 -69 95v37h779q84 0 151 -29t109 -77q43 -49 64 -117q22 -71 22 -146q0 -43 -15 -94q-16 -56 -41 -105q-31 -62 -62 -106q-38 -54 -79 -92v-10h51h78q61 0 92 1t86 1h64h26q18 0 30 -4q13 -4 13 -25v-114q0 -23 -43 -23h-1509
q-43 0 -43 23v114q0 21 13 25q12 4 30 4h543zM711 1464h174v-239h-174v239z" />
    <glyph glyph-name="uniFED2" unicode="&#x641;" horiz-adv-x="2324" arabic-form="final" 
d="M1604 1464h174v-239h-174v239zM1688 834q-144 0 -221 -84q-76 -83 -76 -248t76 -254q77 -90 221 -90t220 90q77 91 77 254t-77 248q-76 84 -220 84zM530 0q-84 0 -165 25q-80 25 -137 80t-92 147q-34 89 -34 221v137h160v-139q0 -157 69 -231t199 -74h809v8
q-17 15 -40 50q-22 32 -44 82q-16 35 -34 97q-15 51 -15 99q0 244 130 374t352 130q221 0 350 -126t129 -378q0 -46 -15 -96q-19 -63 -34 -94q-24 -50 -44 -81q-21 -33 -40 -57v-8h290q18 0 30 -4q13 -4 13 -25v-114q0 -23 -43 -23h-1794z" />
    <glyph glyph-name="uniFED3" unicode="&#x641;" horiz-adv-x="1245" arabic-form="initial" 
d="M592 1464h174v-239h-174v239zM0 0q-43 0 -43 23v114q0 21 13 25q12 4 30 4h328v8q-17 15 -40 50q-22 32 -44 82q-19 41 -35 97q-14 48 -14 99q0 245 128 375q127 129 351 129q222 0 351 -132q128 -131 128 -372t-125 -372q-124 -130 -354 -130h-674zM674 836
q-133 0 -216 -92t-83 -242q0 -76 22 -138q23 -63 63 -108q42 -47 94 -70q54 -24 120 -24q131 0 215 86t84 254t-83 251t-216 83z" />
    <glyph glyph-name="uniFED4" unicode="&#x641;" horiz-adv-x="1257" arabic-form="medial" 
d="M537 1464h174v-239h-174v239zM621 834q-145 0 -221 -84q-76 -83 -76 -248t76 -254q76 -90 221 -90q143 0 220 90q77 91 77 254t-77 248q-77 84 -220 84zM0 0q-43 0 -43 23v114q0 21 13 25q12 4 30 4h272v8q-17 15 -40 50q-22 32 -44 82q-16 35 -34 97q-15 51 -15 99
q0 244 130 374t352 130q221 0 350 -126t129 -378q0 -46 -15 -96q-19 -63 -34 -94q-24 -50 -44 -81q-21 -33 -40 -57v-8h290q18 0 30 -4q13 -4 13 -25v-114q0 -23 -43 -23h-1257z" />
    <glyph glyph-name="uniFED6" unicode="&#x642;" horiz-adv-x="1835" arabic-form="final" 
d="M1192 1464h174v-239h-174v239zM842 1464h174v-239h-174v239zM799 -569q-203 0 -341 57q-137 57 -222 161q-85 105 -122 250q-39 151 -40 324h162q0 -176 33 -289q35 -119 103 -192q69 -74 176 -108q103 -33 255 -33q233 0 373 103q141 104 182 296h-248q-110 0 -194 34
q-85 34 -143 97t-90 152q-32 90 -32 196q0 101 20 198q20 98 70 168q52 74 137 117q86 44 218 44t219 -43q89 -43 141 -123q54 -82 75 -195q21 -114 21 -260q0 -59 -3 -115q-4 -69 -7 -106h295q18 0 30 -4q13 -4 13 -25v-112q0 -23 -43 -23h-319q-60 -287 -233 -428
t-486 -141zM836 479q0 -155 66 -235t208 -80h264v239q0 212 -61 321q-62 110 -215 110q-78 0 -128 -29t-80 -77t-42 -113q-12 -64 -12 -136z" />
    <glyph glyph-name="uniFED7" unicode="&#x642;" horiz-adv-x="1245" arabic-form="initial" 
d="M766 1464h174v-239h-174v239zM416 1464h174v-239h-174v239zM0 0q-43 0 -43 23v114q0 21 13 25q12 4 30 4h328v8q-17 15 -40 50q-22 32 -44 82q-19 41 -35 97q-14 48 -14 99q0 245 128 375q127 129 351 129q222 0 351 -132q128 -131 128 -372t-125 -372
q-124 -130 -354 -130h-674zM674 836q-133 0 -216 -92t-83 -242q0 -76 22 -138q23 -63 63 -108q42 -47 94 -70q54 -24 120 -24q131 0 215 86t84 254t-83 251t-216 83z" />
    <glyph glyph-name="uniFED8" unicode="&#x642;" horiz-adv-x="1257" arabic-form="medial" 
d="M711 1464h174v-239h-174v239zM360 1464h175v-239h-175v239zM621 834q-145 0 -221 -84q-76 -83 -76 -248t76 -254q76 -90 221 -90q143 0 220 90q77 91 77 254t-77 248q-77 84 -220 84zM0 0q-43 0 -43 23v114q0 21 13 25q12 4 30 4h272v8q-17 15 -40 50q-22 32 -44 82
q-16 35 -34 97q-15 51 -15 99q0 244 130 374t352 130q221 0 350 -126t129 -378q0 -46 -15 -96q-19 -63 -34 -94q-24 -50 -44 -81q-21 -33 -40 -57v-8h290q18 0 30 -4q13 -4 13 -25v-114q0 -23 -43 -23h-1257z" />
    <glyph glyph-name="uniFEDA" unicode="&#x643;" horiz-adv-x="1679" arabic-form="final" 
d="M1679 166q18 0 30 -4q13 -4 13 -25v-114q0 -23 -43 -23h-98q-29 0 -60 9t-62 26q-29 16 -53 40t-36 54h-6q-5 -25 -16 -58q-12 -36 -41 -71h-777q-84 0 -165 25q-80 25 -137 80t-92 147q-34 89 -34 221v137h160v-139q0 -157 69 -231t199 -74h664v1298h170v-1073
q0 -112 63 -169q62 -56 156 -56h96zM516 600v74h92v8q-7 9 -26 44q-15 27 -15 56q0 64 39 107t119 43t117 -37q36 -36 41 -109h-80q0 31 -22 53q-21 21 -56 21q-36 0 -54 -24t-18 -66q0 -41 23 -67q21 -24 53 -29h170v-74h-383z" />
    </font>
</defs>
</svg>
