<?xml version="1.0" standalone="no"?>
<!DOCTYPE svg PUBLIC "-//W3C//DTD SVG 1.1//EN" "http://www.w3.org/Graphics/SVG/1.1/DTD/svg11.dtd" >
<svg xmlns="http://www.w3.org/2000/svg" xmlns:xlink="http://www.w3.org/1999/xlink" version="1.1">
<metadata>
Created by FontForge 20201107 at Tue Apr 22 17:48:14 2025
 By 
Copyright (c) 2014 by Abjd / Ali Almasri. All rights reserved.
</metadata>
<defs>
<font id="Swissra-Medium" horiz-adv-x="0" >
  <font-face 
    font-family="Swissra-Medium"
    font-weight="400"
    font-stretch="normal"
    units-per-em="2048"
    panose-1="1 0 0 0 0 0 0 0 0 0"
    ascent="1358"
    descent="-690"
    bbox="-561 -1133 3236 2232"
    underline-thickness="49"
    underline-position="-124"
    unicode-range="U+000D-FEFC"
  />
<missing-glyph horiz-adv-x="1021" 
d="M1022 1432v-1432h-1022v1432h1022zM922 98v1231h-824v-1231h824zM449 467q0 2 -1.5 7.5t-1.5 7.5q-2 12 -2 18q0 26 1 40q1 16 5 43q2 14 8 42q4 16 11 37q16 33 51 70q54 56 64 68q33 39 54 68q24 34 24 76q0 34 -12 64q-13 34 -30 54q-17 21 -48 38q-25 14 -62 14
q-42 0 -70 -15q-27 -14 -48 -43q-18 -25 -31 -62q-10 -28 -15 -68l-98 14q6 61 24 110q17 48 52 87q31 36 80 57q46 20 112 20q59 0 102 -20q47 -22 77 -55q32 -35 50 -83q19 -51 19 -104q0 -50 -13 -86t-34 -66q-22 -31 -46 -54q-32 -30 -49 -45q-21 -18 -42 -43
q-20 -24 -27 -48q-4 -10 -7 -31q-2 -14 -4 -40q-1 -14 -1 -41v-31h-92zM442 233v134h113v-134h-113z" />
    <glyph glyph-name="uniFEF5" unicode="&#xfedf;&#xfe82;" horiz-adv-x="1331" arabic-form="isolated" 
d="M41 211h250v876h241v-876h435v1253h241v-1464h-1167v211zM281 1442q33 0 64 -9q32 -9 63 -20q20 -7 62 -19q35 -10 62 -10q86 0 86 64h66q0 -73 -41 -116q-41 -42 -100 -42q-34 0 -65 9q-33 9 -62 21q-14 6 -62 20q-33 10 -63 10q-86 0 -86 -66h-66q0 73 41 116
q41 42 101 42z" />
    <glyph glyph-name="uniFEF6" unicode="&#xfee0;&#xfe82;" horiz-adv-x="1492" arabic-form="final" 
d="M967 371v1093h241v-1052q0 -51 16 -91q15 -38 40 -63q24 -24 56 -36q29 -11 62 -11h111q18 0 30 -4q13 -4 13 -25v-159q0 -23 -43 -23h-86q-79 0 -152 37t-114 90q-39 -45 -83 -68q-46 -24 -92 -37q-47 -14 -89 -18q-39 -4 -76 -4h-760v211h250v876h241v-876h293
q23 0 45 7q25 8 46 26q20 17 36 49q15 30 15 78zM287 1454q33 0 64 -9q32 -9 63 -20q20 -7 62 -19q32 -9 63 -9q86 0 86 63h65q0 -72 -41 -115q-41 -42 -100 -42q-33 0 -65 9q-42 12 -62 20q-24 10 -62 21q-30 9 -63 9q-86 0 -86 -66h-66q0 73 41 116q41 42 101 42z" />
    <glyph glyph-name="uniFEF7" unicode="&#xfedf;&#xfe84;" horiz-adv-x="1331" arabic-form="isolated" 
d="M41 211h250v876h241v-876h435v1253h241v-1464h-1167v211zM221 1446h70v8q-15 16 -24 41q-9 24 -9 47q0 72 43 111t121 39q60 0 107 -34q49 -35 53 -112h-93q-1 28 -20 48q-18 20 -47 20q-28 0 -47 -22t-19 -60q0 -39 21 -63q20 -23 57 -23h152v-84h-365v84z" />
    <glyph glyph-name="uniFEF8" unicode="&#xfee0;&#xfe84;" horiz-adv-x="1492" arabic-form="final" 
d="M967 371v1093h241v-1052q0 -51 16 -91q15 -38 40 -63q24 -24 56 -36q29 -11 62 -11h111q18 0 30 -4q13 -4 13 -25v-159q0 -23 -43 -23h-86q-79 0 -152 37t-114 90q-39 -45 -83 -68q-46 -24 -92 -37q-47 -14 -89 -18q-39 -4 -76 -4h-760v211h250v876h241v-876h293
q23 0 45 7q25 8 46 26q20 17 36 49q15 30 15 78zM229 1473h70v8q-15 16 -24 41q-9 24 -9 47q0 71 43 110t121 39q61 0 108 -34q48 -34 52 -111h-92q-1 27 -21 48q-18 19 -47 19t-47 -21t-18 -60q0 -40 20 -63t57 -23h152v-84h-365v84z" />
    <glyph glyph-name="uniFEF9" unicode="&#xfedf;&#xfe88;" horiz-adv-x="1331" arabic-form="isolated" 
d="M41 211h250v876h241v-876h435v1253h241v-1464h-1167v211zM221 -473h70v8q-15 16 -24 41q-9 24 -9 47q0 72 43 111t121 39q60 0 107 -34q49 -35 53 -112h-93q-1 28 -20 48q-18 20 -47 20q-28 0 -47 -22t-19 -60q0 -39 21 -63q20 -23 57 -23h152v-84h-365v84z" />
    <glyph glyph-name="uniFEFA" unicode="&#xfee0;&#xfe88;" horiz-adv-x="1492" arabic-form="final" 
d="M967 371v1093h241v-1052q0 -51 16 -91q15 -38 40 -63q24 -24 56 -36q29 -11 62 -11h111q18 0 30 -4q13 -4 13 -25v-159q0 -23 -43 -23h-86q-79 0 -152 37t-114 90q-39 -45 -83 -68q-46 -24 -92 -37q-47 -14 -89 -18q-39 -4 -76 -4h-760v211h250v876h241v-876h293
q23 0 45 7q25 8 46 26q20 17 36 49q15 30 15 78zM213 -444h70v8q-15 16 -24 41q-9 24 -9 47q0 71 43 110t121 39q61 0 107 -33q48 -34 52 -112h-92q-1 28 -20 48q-18 20 -47 20q-28 0 -47 -22t-19 -60q0 -39 21 -63q20 -23 57 -23h152v-84h-365v84z" />
    <glyph glyph-name="uniFEFB" unicode="&#xfedf;&#xfe8e;" horiz-adv-x="1331" arabic-form="isolated" 
d="M41 211h250v876h241v-876h435v1253h241v-1464h-1167v211z" />
    <glyph glyph-name="uniFEFC" unicode="&#xfee0;&#xfe8e;" horiz-adv-x="1492" arabic-form="final" 
d="M967 371v1093h241v-1052q0 -51 16 -91q15 -38 40 -63q24 -24 56 -36q29 -11 62 -11h111q18 0 30 -4q13 -4 13 -25v-159q0 -23 -43 -23h-86q-79 0 -152 37t-114 90q-39 -45 -83 -68q-46 -24 -92 -37q-47 -14 -89 -18q-39 -4 -76 -4h-760v211h250v876h241v-876h293
q23 0 45 7q25 8 46 26q20 17 36 49q15 30 15 78z" />
    <glyph glyph-name="uni06440671" unicode="&#xfedf;&#xfb51;" horiz-adv-x="1331" 
d="M487 1477q80 0 113 -44q33 -43 33 -110v-106h-430v86h61q23 36 47 64q28 33 57 56q30 24 60 39t59 15zM532 1303v20q0 35 -18 51q-19 17 -41 17q-41 0 -73 -30q-32 -31 -48 -58h180zM41 211h250v876h241v-876h435v1253h241v-1464h-1167v211z" />
    <glyph glyph-name="uni06440671.fina" unicode="&#xfee0;&#xfb51;" horiz-adv-x="1492" 
d="M483 1532q80 0 113 -44t33 -110v-106h-430v86h61q23 36 47 64q31 36 57 57q30 24 60 39q28 14 59 14zM528 1358v20q0 36 -18 52q-17 16 -41 16q-41 0 -73 -30q-32 -31 -48 -58h180zM967 371v1093h241v-1052q0 -51 16 -91q15 -38 40 -63q24 -24 56 -36q29 -11 62 -11h111
q18 0 30 -4q13 -4 13 -25v-159q0 -23 -43 -23h-86q-79 0 -152 37t-114 90q-39 -45 -83 -68q-46 -24 -92 -37q-47 -14 -89 -18q-39 -4 -76 -4h-760v211h250v876h241v-876h293q23 0 45 7q25 8 46 26q20 17 36 49q15 30 15 78z" />
    <glyph glyph-name="uni0621" unicode="&#x621;" horiz-adv-x="1107" arabic-form="isolated" 
d="M51 0v211h223v14q-17 16 -37 41q-25 32 -40 61q-21 41 -31 71q-12 38 -12 75q0 93 34 168q33 73 96 128q60 53 139 81q81 29 169 29q179 0 291 -95q111 -94 121 -295h-203q-1 45 -20 80q-19 36 -46 59q-29 24 -66 36t-77 12q-83 0 -141 -50t-58 -153q0 -50 14 -98
q15 -50 39 -84q28 -39 67 -59q41 -21 93 -21h414v-211h-969z" />
    <glyph glyph-name="uni0622" unicode="&#x622;" horiz-adv-x="479" arabic-form="isolated" 
d="M106 1817q30 0 65 -10q42 -12 62 -19q31 -11 63 -20t62 -9q86 0 86 64h66q0 -73 -41 -116q-40 -42 -100 -42q-33 0 -65 9q-33 10 -62 21q-14 6 -62 20q-30 9 -63 9q-86 0 -86 -65h-66q0 73 41 116q40 42 100 42zM123 0v1464h233v-1464h-233z" />
    <glyph glyph-name="uni0623" unicode="&#x623;" horiz-adv-x="479" arabic-form="isolated" 
d="M78 1765h69v9q-13 14 -23 41q-9 24 -9 47q0 71 43 110t121 39q60 0 107 -34q48 -34 52 -111h-92q-1 28 -20 48q-18 19 -47 19q-30 0 -48 -21t-18 -61q0 -39 20 -62q21 -24 58 -24h151v-84h-364v84zM123 0v1464h233v-1464h-233z" />
    <glyph glyph-name="uni0624" unicode="&#x624;" horiz-adv-x="1136" arabic-form="isolated" 
d="M94 1366h70v8q-15 16 -24 41q-9 24 -9 47q0 72 43 111q44 39 121 39q60 0 107 -34q49 -35 53 -112h-93q-1 28 -20 48q-18 20 -47 20q-28 0 -47 -22t-19 -60t21 -62t57 -24h152v-84h-365v84zM406 -287q73 0 137 11q61 10 107 40q45 29 79 88q33 57 51 148h-205
q-110 0 -197 34q-90 35 -155 97q-64 61 -101 152q-36 89 -36 196q0 99 22 198q21 97 75 168q55 73 147 117q93 44 231 44t234 -41q92 -40 150 -120q56 -78 80 -193q24 -114 24 -259q0 -232 -31 -404q-30 -164 -104 -274q-72 -106 -189 -154t-289 -48q-47 0 -78 4
q-40 5 -59 10q-14 4 -51 16v203q37 -19 68 -25q38 -8 90 -8zM330 479q0 -143 59 -205q60 -63 186 -63h230q6 85 6 192q0 193 -52 293q-53 101 -190 101q-68 0 -115 -26t-74 -69q-27 -44 -39 -101q-11 -54 -11 -122z" />
    <glyph glyph-name="uni0625" unicode="&#x625;" horiz-adv-x="479" arabic-form="isolated" 
d="M70 -444h69v8q-13 14 -23 41t-10 47q0 71 44 110t120 39q62 0 108 -33q48 -34 52 -112h-92q-1 27 -21 48q-18 20 -47 20q-28 0 -47 -22q-18 -21 -18 -60q0 -40 20 -63t58 -23h151v-84h-364v84zM123 0v1464h233v-1464h-233z" />
    <glyph glyph-name="uni0626" unicode="&#x626;" horiz-adv-x="1634" arabic-form="isolated" 
d="M72 758h69v8q-13 14 -23 41q-9 24 -9 47q0 72 43 111q44 39 120 39q61 0 108 -34q48 -34 52 -112h-92q-1 27 -21 48q-18 20 -47 20q-28 0 -47 -22q-18 -21 -18 -60q0 -40 20 -63t58 -23h151v-84h-364v84zM823 -367q94 0 185 17t154 50q67 35 107 88t40 128q0 38 -14 69
q-14 30 -50 55q-38 26 -100 51q-70 28 -162 59q-165 52 -254 158q-88 104 -88 247q0 91 27 174q27 82 82 143q57 63 140 98q86 36 202 36q193 0 301 -111t123 -315h-203q-17 97 -72 164q-54 65 -149 65q-96 0 -155 -71q-58 -70 -58 -183q0 -55 23 -94q25 -42 68 -73t107 -57
q66 -27 146 -50q181 -55 253 -148q70 -91 70 -217q0 -110 -41 -200q-41 -89 -129 -152q-90 -64 -225 -98q-131 -33 -330 -33q-219 0 -364 63q-146 63 -233 173q-86 109 -124 258q-37 148 -39 319h211q0 -166 33 -282q33 -115 101 -189t172 -108q103 -34 245 -34z" />
    <glyph glyph-name="uni0627" unicode="&#x627;" horiz-adv-x="479" arabic-form="isolated" 
d="M123 0v1464h233v-1464h-233z" />
    <glyph glyph-name="uni0628" unicode="&#x628;" horiz-adv-x="2004" arabic-form="isolated" 
d="M926 -195h233v-239h-233v239zM1882 0h-1352q-84 0 -170 25q-83 24 -145 80q-64 58 -101 147q-38 91 -38 221v137h213v-139q0 -260 241 -260h1119v661h233v-872z" />
    <glyph glyph-name="uni0629" unicode="&#x629;" horiz-adv-x="1200" arabic-form="isolated" 
d="M324 1464h233v-239h-233v239zM670 1464h233v-239h-233v239zM1108 492q0 -129 -37 -224q-37 -96 -103 -160q-66 -65 -160 -98q-93 -33 -208 -33t-208 33q-94 33 -160 98q-66 64 -103 160q-37 95 -37 224q0 128 37 223q38 98 103 161t160 97q93 33 208 33t208 -33
q95 -34 160 -97t103 -161q37 -95 37 -223zM332 492q0 -133 67 -218q68 -86 201 -86t201 86q67 85 67 218q0 132 -67 217q-68 86 -201 86t-201 -86q-67 -85 -67 -217z" />
    <glyph glyph-name="uni062A" unicode="&#x62a;" horiz-adv-x="2004" arabic-form="isolated" 
d="M688 1286h234v-239h-234v239zM1034 1286h234v-239h-234v239zM1882 0h-1352q-84 0 -170 25q-83 24 -145 80q-64 58 -101 147q-38 91 -38 221v137h213v-139q0 -260 241 -260h1119v661h233v-872z" />
    <glyph glyph-name="uni062B" unicode="&#x62b;" horiz-adv-x="2004" arabic-form="isolated" 
d="M877 1599h233v-239h-233v239zM702 1284h234v-240h-234v240zM1049 1284h233v-240h-233v240zM1882 0h-1352q-84 0 -170 25q-83 24 -145 80q-64 58 -101 147q-38 91 -38 221v137h213v-139q0 -260 241 -260h1119v661h233v-872z" />
    <glyph glyph-name="uni062C" unicode="&#x62c;" horiz-adv-x="1394" arabic-form="isolated" 
d="M606 -135h211v-215h-211v215zM51 -219q0 83 32 162q31 76 93 137q60 58 153 95q91 36 208 36h503q-15 38 -31 105q-13 57 -30 139q-16 86 -43 159q-24 67 -60 107q-36 41 -85 60q-51 20 -119 20q-61 0 -112 -23q-50 -22 -87 -57q-35 -32 -59 -80t-31 -88h-225
q6 103 49 186q44 85 112 144q67 59 160 91q91 32 193 32q148 0 243 -40q97 -41 158 -114q60 -72 94 -179q34 -109 52 -237q7 -46 23 -162q3 -26 10 -65.5t8 -48.5q7 -45 15 -86q9 -46 17 -74h-733q-62 0 -109 -17q-49 -18 -88 -49q-34 -28 -57 -71q-20 -39 -20 -88
q0 -73 19 -131q18 -55 67 -131h-224q-42 53 -68 116q-28 68 -28 152z" />
    <glyph glyph-name="uni062D" unicode="&#x62d;" horiz-adv-x="1394" arabic-form="isolated" 
d="M51 -219q0 83 32 162q31 76 93 137q60 58 153 95q91 36 208 36h503q-15 38 -31 105q-13 57 -30 139q-16 86 -43 159q-24 67 -60 107q-36 41 -85 60q-51 20 -119 20q-61 0 -112 -23q-50 -22 -87 -57q-35 -32 -59 -80t-31 -88h-225q6 103 49 186q44 85 112 144
q67 59 160 91q91 32 193 32q148 0 243 -40q97 -41 158 -114q60 -72 94 -179q34 -109 52 -237q7 -46 23 -162q3 -26 10 -65.5t8 -48.5q7 -45 15 -86q9 -46 17 -74h-733q-62 0 -109 -17q-49 -18 -88 -49q-34 -28 -57 -71q-20 -39 -20 -88q0 -73 19 -131q18 -55 67 -131h-224
q-42 53 -68 116q-28 68 -28 152z" />
    <glyph glyph-name="uni062E" unicode="&#x62e;" horiz-adv-x="1394" arabic-form="isolated" 
d="M664 1464h233v-239h-233v239zM51 -219q0 83 32 162q31 76 93 137q60 58 153 95q91 36 208 36h503q-15 38 -31 105q-13 57 -30 139q-16 86 -43 159q-24 67 -60 107q-36 41 -85 60q-51 20 -119 20q-61 0 -112 -23q-50 -22 -87 -57q-35 -32 -59 -80t-31 -88h-225
q6 103 49 186q44 85 112 144q67 59 160 91q91 32 193 32q148 0 243 -40q97 -41 158 -114q60 -72 94 -179q34 -109 52 -237q7 -46 23 -162q3 -26 10 -65.5t8 -48.5q7 -45 15 -86q9 -46 17 -74h-733q-62 0 -109 -17q-49 -18 -88 -49q-34 -28 -57 -71q-20 -39 -20 -88
q0 -73 19 -131q18 -55 67 -131h-224q-42 53 -68 116q-28 68 -28 152z" />
    <glyph glyph-name="uni062F" unicode="&#x62f;" horiz-adv-x="995" arabic-form="isolated" 
d="M76 211h583v215q0 76 -17 136q-18 65 -56 108q-38 44 -99 70t-143 26h-178v205h178q110 0 212 -31q97 -29 174 -97q76 -67 119 -171q44 -106 44 -252v-420h-817v211z" />
    <glyph glyph-name="uni0630" unicode="&#x630;" horiz-adv-x="995" arabic-form="isolated" 
d="M207 1466h233v-239h-233v239zM76 211h583v215q0 76 -17 136q-18 65 -56 108q-38 44 -99 70t-143 26h-178v205h178q110 0 212 -31q97 -29 174 -97q76 -67 119 -171q44 -106 44 -252v-420h-817v211z" />
    <glyph glyph-name="uni0631" unicode="&#x631;" horiz-adv-x="675" arabic-form="isolated" 
d="M174 -289q36 0 62 10q27 11 45 40q17 29 28 85q10 53 10 146v880h234v-880q0 -232 -81 -356q-80 -123 -273 -123q-39 0 -76 5q-27 4 -55 13q-27 7 -48 18v197q64 -35 154 -35z" />
    <glyph glyph-name="uni0632" unicode="&#x632;" horiz-adv-x="700" arabic-form="isolated" 
d="M344 1464h234v-239h-234v239zM174 -289q36 0 62 10q27 11 45 40q17 29 28 85q10 53 10 146v880h234v-880q0 -232 -81 -356q-80 -123 -273 -123q-39 0 -76 5q-27 4 -55 13q-27 7 -48 18v197q64 -35 154 -35z" />
    <glyph glyph-name="uni0633" unicode="&#x633;" horiz-adv-x="2947" arabic-form="isolated" 
d="M797 -487q-177 0 -313 51t-230 158q-93 106 -143 275q-50 168 -50 398v135h228v-135q0 -193 30 -324q29 -127 93 -208q62 -78 156 -111t225 -33q129 0 232 39q104 39 177 121q74 83 113 210t39 306v391h233v-434q0 -41 16 -71q15 -29 41 -47q22 -16 60 -24q32 -7 74 -7
q38 0 69 7q33 8 58 26q25 19 40 49t15 77v467h233v-501q0 -36 15 -57q14 -19 36 -35t45 -20q27 -5 42 -5h260v661h233v-872h-491q-24 0 -51 6q-22 5 -54 19q-28 12 -49 32q-24 22 -35 49h-8q-39 -57 -111 -84q-75 -28 -188 -28q-96 0 -165 20q-71 21 -109 66h-9
q-29 -117 -85 -218q-57 -103 -148 -181t-221 -123q-129 -45 -303 -45z" />
    <glyph glyph-name="uni0634" unicode="&#x634;" horiz-adv-x="2947" arabic-form="isolated" 
d="M1954 1782h233v-240h-233v240zM1780 1466h233v-239h-233v239zM2126 1466h233v-239h-233v239zM797 -487q-177 0 -313 51t-230 158q-93 106 -143 275q-50 168 -50 398v135h228v-135q0 -193 30 -324q29 -127 93 -208q62 -78 156 -111t225 -33q129 0 232 39q104 39 177 121
q74 83 113 210t39 306v391h233v-434q0 -41 16 -71q15 -29 41 -47q22 -16 60 -24q32 -7 74 -7q38 0 69 7q33 8 58 26q25 19 40 49t15 77v467h233v-501q0 -36 15 -57q14 -19 36 -35t45 -20q27 -5 42 -5h260v661h233v-872h-491q-24 0 -51 6q-22 5 -54 19q-28 12 -49 32
q-24 22 -35 49h-8q-39 -57 -111 -84q-75 -28 -188 -28q-96 0 -165 20q-71 21 -109 66h-9q-29 -117 -85 -218q-57 -103 -148 -181t-221 -123q-129 -45 -303 -45z" />
    <glyph glyph-name="uni0635" unicode="&#x635;" horiz-adv-x="3012" arabic-form="isolated" 
d="M797 -487q-177 0 -313 51t-230 158q-93 106 -143 275q-50 168 -50 398v135h228v-135q0 -193 30 -324q29 -127 93 -208q62 -78 156 -111t225 -33q129 0 232 39q104 39 177 121q74 83 113 210t39 306v420h233v-360h10q62 79 155 179q85 91 184 163q93 68 209 117
q111 47 229 47q117 0 216 -33q98 -33 170 -97q69 -62 110 -157q40 -93 40 -217v-457h-1380q-35 -102 -94 -190q-60 -89 -149 -155q-91 -68 -211 -105t-279 -37zM2365 750q-81 0 -163 -33t-159 -84q-78 -52 -147 -115t-126 -123q-49 -52 -96 -109q-21 -26 -58 -75h1063v242
q0 153 -72 225t-242 72z" />
    <glyph glyph-name="uni0636" unicode="&#x636;" horiz-adv-x="3012" arabic-form="isolated" 
d="M1659 1464h233v-239h-233v239zM797 -487q-177 0 -313 51t-230 158q-93 106 -143 275q-50 168 -50 398v135h228v-135q0 -193 30 -324q29 -127 93 -208q62 -78 156 -111t225 -33q129 0 232 39q104 39 177 121q74 83 113 210t39 306v420h233v-360h10q62 79 155 179
q85 91 184 163q93 68 209 117q111 47 229 47q117 0 216 -33q98 -33 170 -97q69 -62 110 -157q40 -93 40 -217v-457h-1380q-35 -102 -94 -190q-60 -89 -149 -155q-91 -68 -211 -105t-279 -37zM2365 750q-81 0 -163 -33t-159 -84q-78 -52 -147 -115t-126 -123
q-49 -52 -96 -109q-21 -26 -58 -75h1063v242q0 153 -72 225t-242 72z" />
    <glyph glyph-name="uni0637" unicode="&#x637;" horiz-adv-x="1828" arabic-form="isolated" 
d="M51 0v211h166v1253h234v-964h8q66 89 142 167q80 83 170 148q89 64 194 106q101 40 217 40t217 -33q99 -33 173 -97q75 -65 114 -157q40 -93 40 -217v-457h-1675zM1182 750q-82 0 -162 -33q-82 -34 -154 -84q-68 -47 -139 -115q-63 -60 -118 -123t-90 -109
q-26 -35 -54 -75h1030v242q0 60 -25 118q-24 56 -66 95q-41 38 -99 61t-123 23z" />
    <glyph glyph-name="uni0638" unicode="&#x638;" horiz-adv-x="1828" arabic-form="isolated" 
d="M788 1407h234v-240h-234v240zM51 0v211h166v1253h234v-964h8q66 89 142 167q80 83 170 148q89 64 194 106q101 40 217 40t217 -33q99 -33 173 -97q75 -65 114 -157q40 -93 40 -217v-457h-1675zM1182 750q-82 0 -162 -33q-82 -34 -154 -84q-68 -47 -139 -115
q-63 -60 -118 -123t-90 -109q-26 -35 -54 -75h1030v242q0 60 -25 118q-24 56 -66 95q-41 38 -99 61t-123 23z" />
    <glyph glyph-name="uni0639" unicode="&#x639;" horiz-adv-x="1216" arabic-form="isolated" 
d="M51 -240q0 150 67 270q66 118 210 175v8q-52 47 -87 129q-34 81 -34 188q0 105 20 188q21 85 74 151q53 65 142 101t229 36q103 0 181 -28q74 -27 125 -81t79 -129q30 -79 41 -174h-217q-11 44 -25 80q-15 37 -39 64t-59 44q-36 17 -86 17q-102 0 -166 -67t-64 -202
q0 -141 70 -231q69 -88 203 -88h413v-211h-565q-133 0 -204 -66q-70 -66 -70 -174q0 -61 22 -124q20 -58 64 -123h-228q-36 46 -65 112q-31 71 -31 135z" />
    <glyph glyph-name="uni063A" unicode="&#x63a;" horiz-adv-x="1216" arabic-form="isolated" 
d="M541 1489h233v-240h-233v240zM51 -240q0 150 67 270q66 118 210 175v8q-52 47 -87 129q-34 81 -34 188q0 105 20 188q21 85 74 151q53 65 142 101t229 36q103 0 181 -28q74 -27 125 -81t79 -129q30 -79 41 -174h-217q-11 44 -25 80q-15 37 -39 64t-59 44q-36 17 -86 17
q-102 0 -166 -67t-64 -202q0 -141 70 -231q69 -88 203 -88h413v-211h-565q-133 0 -204 -66q-70 -66 -70 -174q0 -61 22 -124q20 -58 64 -123h-228q-36 46 -65 112q-31 71 -31 135z" />
    <glyph glyph-name="uni0641" unicode="&#x641;" horiz-adv-x="2275" arabic-form="isolated" 
d="M1571 1464h233v-239h-233v239zM1677 803q-132 0 -200 -83t-68 -218q0 -134 69 -217q69 -82 199 -82q131 0 200 82t69 217t-68 218t-201 83zM1300 211v8q-15 9 -41 38q-22 24 -43 67q-19 37 -34 85q-15 47 -15 93q0 122 38 216q38 93 107 158q68 64 162 97q93 33 203 33
q108 0 204 -31q91 -29 162 -94q68 -62 106 -158t38 -221q0 -128 -37 -221q-37 -94 -103 -157t-161 -93q-98 -31 -209 -31h-1147q-84 0 -170 25q-83 24 -145 80q-64 58 -101 147q-38 91 -38 221v137h213v-139q0 -260 241 -260h770z" />
    <glyph glyph-name="uni0642" unicode="&#x642;" horiz-adv-x="1689" arabic-form="isolated" 
d="M858 1464h234v-239h-234v239zM1204 1464h234v-239h-234v239zM1130 0q-110 0 -197 34q-90 35 -155 97q-64 61 -101 152q-36 88 -36 196q0 99 22 198q21 97 75 168q55 73 147 117q93 44 231 44q141 0 234 -43q92 -42 150 -123q55 -77 80 -195q24 -114 24 -260
q0 -229 -38 -410q-37 -177 -129 -299q-90 -119 -242 -183q-148 -62 -376 -62q-227 0 -370 59q-146 60 -231 166q-84 105 -119 252q-35 146 -36 315h222q0 -308 137 -445q136 -136 401 -136q218 0 345 94q130 96 182 264h-220zM1364 211v192q0 193 -51 293q-51 101 -189 101
q-68 0 -115 -26t-74 -69q-27 -44 -39 -101q-11 -54 -11 -122q0 -143 59 -205q60 -63 186 -63h234z" />
    <glyph glyph-name="uni0643" unicode="&#x643;" horiz-adv-x="1517" arabic-form="isolated" 
d="M516 600v80h80v10q-13 17 -24 43q-11 25 -11 49q0 64 42 107t122 43t120 -37q39 -37 44 -109h-94q0 28 -19 50q-17 20 -51 20q-63 0 -63 -86q0 -40 18 -63q18 -22 49 -27h170v-80h-383zM1395 0h-865q-84 0 -170 25q-83 24 -145 80q-64 58 -101 147q-38 91 -38 221v137
h213v-139q0 -260 241 -260h631v1253h234v-1464z" />
    <glyph glyph-name="uni0644" unicode="&#x644;" horiz-adv-x="1501" arabic-form="isolated" 
d="M1378 1464v-1050q0 -223 -28 -390q-28 -169 -105 -283t-208 -171q-132 -57 -337 -57q-206 0 -331 63q-124 63 -194 178q-68 112 -91 275t-23 354h213q0 -179 28 -311q26 -123 81 -206q52 -79 134 -114t190 -35q104 0 188 35q81 34 137 114t84 206q29 130 29 311v1081h233
z" />
    <glyph glyph-name="uni0645" unicode="&#x645;" horiz-adv-x="1370" arabic-form="isolated" 
d="M262 502q0 122 38 216q38 93 107 158q69 64 161 97q93 33 204 33q108 0 204 -31q91 -29 162 -94q68 -62 106 -158t38 -221q0 -128 -37 -221q-37 -94 -103 -157t-161 -93q-98 -31 -209 -31h-270q-67 0 -108 -16q-42 -16 -66 -45q-25 -30 -34 -66q-9 -38 -9 -76v-286h-234
v284q0 166 83 273q82 106 261 135q-18 18 -42 51q-23 31 -43 75q-18 38 -34 87q-14 42 -14 86zM772 803q-133 0 -201 -83q-67 -82 -67 -218t68 -217q69 -82 200 -82t200 82q68 81 68 217t-67 218q-68 83 -201 83z" />
    <glyph glyph-name="uni0646" unicode="&#x646;" horiz-adv-x="1710" arabic-form="isolated" 
d="M756 999h233v-239h-233v239zM797 -487q-352 0 -543 224q-193 226 -193 658v178h228v-178q0 -179 30 -306q29 -125 93 -210q61 -82 156 -121t225 -39q129 0 232 39q104 39 177 121q74 83 113 210t39 306v221h233v-251q0 -154 -39 -307t-130 -274q-93 -123 -242 -197
t-379 -74z" />
    <glyph glyph-name="uni0648" unicode="&#x648;" horiz-adv-x="1136" arabic-form="isolated" 
d="M406 -287q73 0 137 11q61 10 107 40q45 29 79 88q33 57 51 148h-205q-110 0 -197 34q-90 35 -155 97q-64 61 -101 152q-36 89 -36 196q0 99 22 198q21 97 75 168q55 73 147 117q93 44 231 44t234 -41q92 -40 150 -120q56 -78 80 -193q24 -114 24 -259q0 -232 -31 -404
q-30 -164 -104 -274q-72 -106 -189 -154t-289 -48q-47 0 -78 4q-40 5 -59 10q-14 4 -51 16v203q37 -19 68 -25q38 -8 90 -8zM330 479q0 -143 59 -205q60 -63 186 -63h230q6 85 6 192q0 193 -52 293q-53 101 -190 101q-68 0 -115 -26t-74 -69q-27 -44 -39 -101
q-11 -54 -11 -122z" />
    <glyph glyph-name="uni0649" unicode="&#x649;" horiz-adv-x="1634" arabic-form="isolated" 
d="M823 -367q94 0 185 17t154 50q67 35 107 88t40 128q0 38 -14 69q-14 30 -50 55q-38 26 -100 51q-70 28 -162 59q-165 52 -254 158q-88 104 -88 247q0 91 27 174q27 82 82 143q57 63 140 98q86 36 202 36q193 0 301 -111t123 -315h-203q-17 97 -72 164q-54 65 -149 65
q-96 0 -155 -71q-58 -70 -58 -183q0 -55 23 -94q25 -42 68 -73t107 -57q66 -27 146 -50q181 -55 253 -148q70 -91 70 -217q0 -110 -41 -200q-41 -89 -129 -152q-90 -64 -225 -98q-131 -33 -330 -33q-219 0 -364 63q-146 63 -233 173q-86 109 -124 258q-37 148 -39 319h211
q0 -166 33 -282q33 -115 101 -189t172 -108q103 -34 245 -34z" />
    <glyph glyph-name="uni064A" unicode="&#x64a;" horiz-adv-x="1634" arabic-form="isolated" 
d="M594 -721h233v-240h-233v240zM940 -721h234v-240h-234v240zM823 -367q94 0 185 17t154 50q67 35 107 88t40 128q0 38 -14 69q-14 30 -50 55q-38 26 -100 51q-70 28 -162 59q-165 52 -254 158q-88 104 -88 247q0 91 27 174q27 82 82 143q57 63 140 98q86 36 202 36
q193 0 301 -111t123 -315h-203q-17 97 -72 164q-54 65 -149 65q-96 0 -155 -71q-58 -70 -58 -183q0 -55 23 -94q25 -42 68 -73t107 -57q66 -27 146 -50q181 -55 253 -148q70 -91 70 -217q0 -110 -41 -200q-41 -89 -129 -152q-90 -64 -225 -98q-131 -33 -330 -33
q-219 0 -364 63q-146 63 -233 173q-86 109 -124 258q-37 148 -39 319h211q0 -166 33 -282q33 -115 101 -189t172 -108q103 -34 245 -34z" />
    <glyph glyph-name="uni0671" unicode="&#x671;" horiz-adv-x="479" arabic-form="isolated" 
d="M332 1939q79 0 112 -44q33 -43 33 -109v-107h-430v86h62q25 39 47 65q31 36 56 56q30 24 60 39q28 14 60 14zM377 1765v21q0 34 -19 51q-17 16 -41 16q-42 0 -72 -29q-31 -29 -48 -59h180zM123 0v1464h233v-1464h-233z" />
    <glyph glyph-name="uni0679" unicode="&#x679;" horiz-adv-x="2004" arabic-form="isolated" 
d="M1882 0h-1352q-84 0 -170 25q-83 24 -145 80q-64 58 -101 147q-38 91 -38 221v137h213v-139q0 -260 241 -260h1119v661h233v-872zM1032 1133q80 0 113 -44q33 -43 33 -110v-107h-430v86h47v293h98v-198h8q26 27 62 54q35 26 69 26zM1077 958v21q0 35 -18 51
q-19 17 -41 17q-42 0 -73 -30q-31 -29 -48 -59h180z" />
    <glyph glyph-name="uni067E" unicode="&#x67e;" horiz-adv-x="2004" arabic-form="isolated" 
d="M1085 -121h148v-155h-148v155zM975 -324h145v-157h-145v157zM862 -121h144v-155h-144v155zM1882 0h-1352q-84 0 -170 25q-83 24 -145 80q-64 58 -101 147q-38 91 -38 221v137h213v-139q0 -260 241 -260h1119v661h233v-872z" />
    <glyph glyph-name="uni0686" unicode="&#x686;" horiz-adv-x="1394" arabic-form="isolated" 
d="M786 -121h148v-155h-148v155zM676 -324h145v-157h-145v157zM563 -121h144v-155h-144v155zM51 -219q0 83 32 162q31 76 93 137q60 58 153 95q91 36 208 36h503q-15 38 -31 105q-13 57 -30 139q-16 86 -43 159q-24 67 -60 107q-36 41 -85 60q-51 20 -119 20q-61 0 -112 -23
q-50 -22 -87 -57q-35 -32 -59 -80t-31 -88h-225q6 103 49 186q44 85 112 144q67 59 160 91q91 32 193 32q148 0 243 -40q97 -41 158 -114q60 -72 94 -179q34 -109 52 -237q7 -46 23 -162q3 -26 10 -65.5t8 -48.5q7 -45 15 -86q9 -46 17 -74h-733q-62 0 -109 -17
q-49 -18 -88 -49q-34 -28 -57 -71q-20 -39 -20 -88q0 -73 19 -131q18 -55 67 -131h-224q-42 53 -68 116q-28 68 -28 152z" />
    <glyph glyph-name="uni0688" unicode="&#x688;" horiz-adv-x="1073" arabic-form="isolated" 
d="M524 1458q80 0 113 -44t33 -109v-107h-430v86h47v293h98v-199h8q29 31 62 55q34 25 69 25zM569 1284v21q0 35 -18 51q-17 16 -41 16q-42 0 -73 -30q-32 -31 -48 -58h180zM154 211h583v215q0 76 -17 136q-18 65 -56 108q-38 44 -99 70t-143 26h-178v205h178q110 0 212 -31
q97 -29 174 -97q76 -67 119 -171q44 -106 44 -252v-420h-817v211z" />
    <glyph glyph-name="uni0691" unicode="&#x691;" horiz-adv-x="675" arabic-form="isolated" 
d="M510 1462q80 0 113 -44q32 -42 32 -109v-107h-430v86h47v293h99v-199h8q31 33 61 55q34 25 70 25zM555 1288v21q0 35 -18 51q-17 16 -41 16q-43 0 -73 -29q-31 -29 -48 -59h180zM174 -289q36 0 62 10q27 11 45 40q17 29 28 85q10 53 10 146v880h234v-880q0 -232 -81 -356
q-80 -123 -273 -123q-39 0 -76 5q-27 4 -55 13q-27 7 -48 18v197q64 -35 154 -35z" />
    <glyph glyph-name="uni0698" unicode="&#x698;" horiz-adv-x="675" arabic-form="isolated" 
d="M348 1780h234v-240h-234v240zM174 1464h234v-239h-234v239zM520 1464h234v-239h-234v239zM174 -289q36 0 62 10q27 11 45 40q17 29 28 85q10 53 10 146v880h234v-880q0 -232 -81 -356q-80 -123 -273 -123q-39 0 -76 5q-27 4 -55 13q-27 7 -48 18v197q64 -35 154 -35z" />
    <glyph glyph-name="uni06A4" unicode="&#x6a4;" horiz-adv-x="2275" arabic-form="isolated" 
d="M1573 1780h233v-240h-233v240zM1399 1464h233v-239h-233v239zM1745 1464h233v-239h-233v239zM1677 803q-132 0 -200 -83t-68 -218q0 -134 69 -217q69 -82 199 -82q131 0 200 82t69 217t-68 218t-201 83zM1300 211v8q-15 9 -41 38q-22 24 -43 67q-19 37 -34 85
q-15 47 -15 93q0 122 38 216q38 93 107 158q68 64 162 97q93 33 203 33q108 0 204 -31q91 -29 162 -94q68 -62 106 -158t38 -221q0 -128 -37 -221q-37 -94 -103 -157t-161 -93q-98 -31 -209 -31h-1147q-84 0 -170 25q-83 24 -145 80q-64 58 -101 147q-38 91 -38 221v137h213
v-139q0 -260 241 -260h770z" />
    <glyph glyph-name="uni06A9" unicode="&#x6a9;" horiz-adv-x="1845" arabic-form="isolated" 
d="M530 0q-84 0 -170 25q-83 24 -145 80q-64 58 -101 147q-38 91 -38 221v137h213v-139q0 -260 241 -260h971v242q0 163 -74 237t-192 74h-545v207l492 493h282l-485 -493h246q142 0 240 -34q102 -35 161 -99q62 -67 89 -163q28 -101 28 -222v-453h-1213z" />
    <glyph glyph-name="uni06AF" unicode="&#x6af;" horiz-adv-x="1845" arabic-form="isolated" 
d="M512 954h-219l487 510h224zM530 0q-84 0 -170 25q-83 24 -145 80q-64 58 -101 147q-38 91 -38 221v137h213v-139q0 -260 241 -260h971v242q0 163 -74 237t-192 74h-545v207l492 493h282l-485 -493h246q142 0 240 -34q102 -35 161 -99q62 -67 89 -163q28 -101 28 -222
v-453h-1213z" />
    <glyph glyph-name="uni06BA" unicode="&#x6ba;" horiz-adv-x="1746" arabic-form="isolated" 
d="M797 -487q-352 0 -543 224q-193 226 -193 658v178h228v-178q0 -179 30 -306q29 -125 93 -210q61 -82 156 -121t225 -39q129 0 232 39q104 39 177 121q74 83 113 210t39 306v221h233v-251q0 -154 -39 -307t-130 -274q-93 -123 -242 -197t-379 -74z" />
    <glyph glyph-name="uni06BE" unicode="&#x6be;" horiz-adv-x="1824" arabic-form="isolated" 
d="M295 -131v-37h-244v49q0 94 29 158q28 63 81 102q54 40 125 55q72 15 163 15h92q-25 32 -41 82q-15 46 -15 113q0 74 22 137q21 59 58 101q39 44 86 68q49 26 105 36q60 116 174 187q115 71 280 71q273 0 393 -128q119 -126 119 -389v-489h-1271q-86 0 -121 -26t-35 -105
zM1176 406q0 -63 -16 -113q-15 -46 -40 -82h369v278q0 170 -76 246t-203 76q-73 0 -131 -25q-55 -24 -90 -65q80 -35 133 -113q54 -80 54 -202zM831 598q-72 0 -119 -50q-46 -49 -46 -142t48 -150t117 -57q70 0 117 57q47 58 47 150t-45 142t-119 50z" />
    <glyph glyph-name="uni06C1" unicode="&#x6c1;" horiz-adv-x="1200" arabic-form="isolated" 
d="M1108 492q0 -129 -37 -224q-37 -96 -103 -160q-66 -65 -160 -98q-93 -33 -208 -33t-208 33q-94 33 -160 98q-66 64 -103 160q-37 95 -37 224q0 128 37 223q38 98 103 161t160 97q93 33 208 33t208 -33q95 -34 160 -97t103 -161q37 -95 37 -223zM332 492q0 -133 67 -218
q68 -86 201 -86t201 86q67 85 67 218q0 132 -67 217q-68 86 -201 86t-201 -86q-67 -85 -67 -217z" />
    <glyph glyph-name="uni06C2.fina" unicode="&#x6c2;" horiz-adv-x="1245" 
d="M420 1364h69v8q-13 14 -23 41q-9 24 -9 47q0 72 43 111q44 39 121 39q60 0 107 -34q48 -34 52 -112h-92q-1 28 -20 48q-18 20 -47 20t-48 -22q-18 -21 -18 -60t20 -62q21 -24 58 -24h151v-84h-364v84zM1231 211q18 0 30 -4q13 -4 13 -25v-159q0 -23 -43 -23h-78
q-77 0 -148 23q-70 23 -119 63q-51 42 -80 100q-30 60 -30 133v406h-244q-61 0 -101 -20q-42 -21 -67 -58t-37 -85t-12 -103v-248h-229v252q0 98 30 188q30 91 91 159q63 70 154 110q94 41 219 41h426v-537q0 -120 37 -166q38 -47 128 -47h60z" />
    <glyph glyph-name="uni06C3.fina" unicode="&#x6c3;" horiz-adv-x="1236" 
d="M309 1464h234v-239h-234v239zM655 1464h234v-239h-234v239zM1180 0q-68 0 -119 19t-95 52t-71 74q-30 45 -47 93q-47 -66 -125 -116q-79 -50 -180 -50q-78 0 -159 24q-80 24 -147 77q-69 55 -109 134q-42 82 -42 197q0 96 29 183q28 85 86 149q57 63 145 99q89 36 205 36
h463v-547q0 -119 44 -166t122 -47h57q18 0 30 -4q13 -4 13 -25v-159q0 -23 -43 -23h-57zM543 274q99 0 168 60t69 180v252h-229q-96 0 -163 -70q-66 -69 -66 -192q0 -121 63 -175q64 -55 158 -55z" />
    <glyph glyph-name="uni06CC" unicode="&#x6cc;" horiz-adv-x="1634" arabic-form="isolated" 
d="M823 -367q94 0 185 17t154 50q67 35 107 88t40 128q0 38 -14 69q-14 30 -50 55q-38 26 -100 51q-70 28 -162 59q-165 52 -254 158q-88 104 -88 247q0 91 27 174q27 82 82 143q57 63 140 98q86 36 202 36q193 0 301 -111t123 -315h-203q-17 97 -72 164q-54 65 -149 65
q-96 0 -155 -71q-58 -70 -58 -183q0 -55 23 -94q25 -42 68 -73t107 -57q66 -27 146 -50q181 -55 253 -148q70 -91 70 -217q0 -110 -41 -200q-41 -89 -129 -152q-90 -64 -225 -98q-131 -33 -330 -33q-219 0 -364 63q-146 63 -233 173q-86 109 -124 258q-37 148 -39 319h211
q0 -166 33 -282q33 -115 101 -189t172 -108q103 -34 245 -34z" />
    <glyph glyph-name="uni06D2" unicode="&#x6d2;" horiz-adv-x="1837" arabic-form="isolated" 
d="M958 745h-331q-67 0 -126 -21q-58 -21 -101 -64t-66 -104q-25 -66 -25 -142v-203h996q118 0 170 70q51 69 51 192v137h223v-139q0 -243 -104 -356q-106 -115 -281 -115h-1288v401q0 137 29 236q30 101 97 173q65 70 171 106q105 36 254 36h331v-207z" />
    <glyph glyph-name="uni06D3" unicode="&#x6d3;" horiz-adv-x="1837" arabic-form="isolated" 
d="M604 1274h70v8q-15 16 -24 41q-9 24 -9 47q0 72 43 111q44 39 121 39q60 0 107 -34q49 -35 53 -112h-93q-1 28 -20 48q-18 20 -47 20q-28 0 -47 -22t-19 -60q0 -39 21 -63q20 -23 57 -23h152v-84h-365v84zM958 745h-331q-67 0 -126 -21q-58 -21 -101 -64t-66 -104
q-25 -66 -25 -142v-203h996q118 0 170 70q51 69 51 192v137h223v-139q0 -243 -104 -356q-106 -115 -281 -115h-1288v401q0 137 29 236q30 101 97 173q65 70 171 106q105 36 254 36h331v-207z" />
    <glyph glyph-name="uni06D5.fina" unicode="&#x6d5;" horiz-adv-x="1236" 
d="M1180 0q-68 0 -119 19t-95 52t-71 74q-30 45 -47 93q-47 -66 -125 -116q-79 -50 -180 -50q-78 0 -159 24q-80 24 -147 77q-69 55 -109 134q-42 82 -42 197q0 96 29 183q28 85 86 149q57 63 145 99q89 36 205 36h463v-547q0 -119 44 -166t122 -47h57q18 0 30 -4
q13 -4 13 -25v-159q0 -23 -43 -23h-57zM543 274q99 0 168 60t69 180v252h-229q-96 0 -163 -70q-66 -69 -66 -192q0 -121 63 -175q64 -55 158 -55z" />
    <glyph glyph-name="uniFB51" unicode="&#x671;" horiz-adv-x="540" arabic-form="final" 
d="M309 1939q80 0 113 -44q33 -43 33 -109v-107h-430v86h61q25 39 47 65q31 36 56 56q28 23 61 39q28 14 59 14zM354 1765v21q0 34 -18 51q-17 16 -41 16q-43 0 -73 -29q-31 -29 -48 -59h180zM541 211q17 0 29 -4q14 -5 14 -25v-159q0 -23 -43 -23h-418v1464h233v-1253h185z
" />
    <glyph glyph-name="uniFB57" unicode="&#x67e;" horiz-adv-x="2162" arabic-form="final" 
d="M1061 -121h147v-155h-147v155zM950 -324h146v-157h-146v157zM838 -121h143v-155h-143v155zM530 0q-84 0 -170 25q-83 24 -145 80q-64 58 -101 147q-38 91 -38 221v137h213v-139q0 -260 241 -260h977q23 0 45 7q25 8 46 26q20 17 36 49q15 30 15 78v501h233v-430
q0 -52 21 -96q21 -43 52 -73t68 -46q36 -16 72 -16h68q17 0 29 -4q14 -5 14 -25v-159q0 -23 -43 -23h-68q-48 0 -86 17q-43 19 -76 45q-34 26 -60 62q-28 37 -38 66q-53 -98 -146 -144q-92 -46 -184 -46h-975z" />
    <glyph glyph-name="uniFB58" unicode="&#x67e;" horiz-adv-x="751" arabic-form="initial" 
d="M383 -121h147v-155h-147v155zM272 -324h146v-157h-146v157zM160 -121h143v-155h-143v155zM379 211v661h233v-872h-612q-43 0 -43 23v159q0 21 13 25q12 4 30 4h379z" />
    <glyph glyph-name="uniFB59" unicode="&#x67e;" horiz-adv-x="972" arabic-form="medial" 
d="M614 -121h148v-155h-148v155zM504 -324h145v-157h-145v157zM391 -121h144v-155h-144v155zM885 0q-48 0 -86 17q-43 19 -76 45q-34 26 -60 62q-28 37 -38 66q-51 -96 -147 -144q-92 -46 -183 -46h-295q-43 0 -43 23v159q0 21 13 25q12 4 30 4h297q23 0 45 7q25 8 46 26
q20 17 36 49q14 28 14 78v501h234v-430q0 -55 20 -96q21 -43 52 -73q31 -29 69 -46q36 -16 72 -16h88q17 0 29 -4q14 -5 14 -25v-159q0 -23 -43 -23h-88z" />
    <glyph glyph-name="uniFB67" unicode="&#x679;" horiz-adv-x="2162" arabic-form="final" 
d="M530 0q-84 0 -170 25q-83 24 -145 80q-64 58 -101 147q-38 91 -38 221v137h213v-139q0 -260 241 -260h977q23 0 45 7q25 8 46 26q20 17 36 49q15 30 15 78v501h233v-430q0 -52 21 -96q21 -43 52 -73t68 -46q36 -16 72 -16h68q17 0 29 -4q14 -5 14 -25v-159q0 -23 -43 -23
h-68q-48 0 -86 17q-43 19 -76 45q-34 26 -60 62q-28 37 -38 66q-53 -98 -146 -144q-92 -46 -184 -46h-975zM1018 1133q79 0 112 -44q33 -43 33 -110v-107h-430v86h47v293h99v-198h8q28 30 61 54q35 26 70 26zM1063 958v21q0 34 -19 51t-40 17q-42 0 -73 -30q-31 -29 -48 -59
h180z" />
    <glyph glyph-name="uniFB68" unicode="&#x679;" horiz-adv-x="735" arabic-form="initial" 
d="M467 1462q80 0 113 -44q32 -42 32 -109v-107h-430v86h47v293h99v-199h8q31 33 61 55q34 25 70 25zM512 1288v21q0 35 -18 51q-17 16 -41 16q-43 0 -73 -29q-31 -29 -48 -59h180zM379 211v661h233v-872h-612q-43 0 -43 23v159q0 21 13 25q12 4 30 4h379z" />
    <glyph glyph-name="uniFB69" unicode="&#x679;" horiz-adv-x="972" arabic-form="medial" 
d="M614 1458q80 0 113 -44t33 -109v-107h-430v86h47v293h98v-199h8q29 31 62 55q34 25 69 25zM659 1284v21q0 35 -18 51q-17 16 -41 16q-42 0 -73 -30q-32 -31 -48 -58h180zM885 0q-48 0 -86 17q-43 19 -76 45q-34 26 -60 62q-28 37 -38 66q-51 -96 -147 -144
q-92 -46 -183 -46h-295q-43 0 -43 23v159q0 21 13 25q12 4 30 4h297q23 0 45 7q25 8 46 26q20 17 36 49q14 28 14 78v501h234v-430q0 -55 20 -96q21 -43 52 -73q31 -29 69 -46q36 -16 72 -16h88q17 0 29 -4q14 -5 14 -25v-159q0 -23 -43 -23h-88z" />
    <glyph glyph-name="uniFB6B" unicode="&#x6a4;" horiz-adv-x="2320" arabic-form="final" 
d="M1585 1780h234v-240h-234v240zM1411 1464h234v-239h-234v239zM1757 1464h234v-239h-234v239zM1677 803q-132 0 -200 -83t-68 -218q0 -134 69 -217q69 -82 199 -82q131 0 200 82t69 217t-68 218t-201 83zM530 0q-84 0 -170 25q-83 24 -145 80q-64 58 -101 147
q-38 91 -38 221v137h213v-139q0 -260 241 -260h770v8q-15 9 -41 38q-24 27 -44 67q-16 31 -33 85q-15 47 -15 93q0 122 38 216q38 93 107 158q68 64 162 97q93 33 203 33q111 0 204 -33q94 -33 162 -97q68 -63 106 -158q38 -94 38 -216q0 -50 -14 -93q-15 -48 -34 -85
q-21 -43 -43 -67q-25 -28 -42 -38v-8h266q18 0 30 -4q13 -4 13 -25v-159q0 -23 -43 -23h-1790z" />
    <glyph glyph-name="uniFB6C" unicode="&#x6a4;" horiz-adv-x="1273" arabic-form="initial" 
d="M588 1780h233v-240h-233v240zM414 1464h233v-239h-233v239zM760 1464h233v-239h-233v239zM0 0q-43 0 -43 23v159q0 21 13 25q12 4 30 4h299v8q-17 10 -42 38q-22 24 -43 67q-19 37 -34 85q-14 43 -14 93q0 122 38 216q38 95 106 158q68 64 162 97q93 33 204 33
q108 0 204 -31q90 -29 161 -94q69 -63 107 -158q38 -96 38 -221q0 -128 -37 -221q-37 -94 -103 -157t-161 -93q-98 -31 -209 -31h-676zM676 803q-133 0 -201 -83q-67 -82 -67 -218t68 -217q69 -82 200 -82t200 82q68 81 68 217t-67 218q-68 83 -201 83z" />
    <glyph glyph-name="uniFB6D" unicode="&#x6a4;" horiz-adv-x="1257" arabic-form="medial" 
d="M522 1780h234v-240h-234v240zM348 1464h234v-239h-234v239zM694 1464h234v-239h-234v239zM621 803q-133 0 -201 -83t-68 -218q0 -134 69 -217q69 -82 200 -82q130 0 199 82q69 83 69 217q0 135 -68 218t-200 83zM0 0q-43 0 -43 23v159q0 21 13 25q12 4 30 4h244v8
q-17 10 -42 38q-22 24 -43 67q-19 37 -34 85q-14 43 -14 93q0 124 37 216q38 93 107 158q68 64 162 97q93 33 204 33q110 0 203 -33q94 -33 162 -97q69 -65 107 -158q37 -92 37 -216q0 -50 -14 -93q-15 -48 -34 -85q-21 -43 -43 -67q-25 -28 -42 -38v-8h260q18 0 30 -4
q13 -4 13 -25v-159q0 -23 -43 -23h-1257z" />
    <glyph glyph-name="uniFB7B" unicode="&#x686;" horiz-adv-x="1583" arabic-form="final" 
d="M731 -78h146v-155h-146v155zM618 -283h146v-155h-146v155zM506 -78h145v-155h-145v155zM1036 211v244q0 175 -84 260q-84 86 -239 86q-121 0 -198 -71q-76 -70 -97 -177h-228q6 99 51 186q43 84 114 144q69 59 163 91q93 32 195 32q138 0 242 -40q108 -42 179 -114
t109 -179q37 -104 37 -237v-37q0 -57 17 -92q18 -37 46 -58q31 -23 69 -30q43 -8 87 -8h84q18 0 30 -4q13 -4 13 -25v-159q0 -23 -43 -23h-86q-29 0 -60 9t-62 26q-30 16 -52 40q-23 25 -35 54h-8q-5 -25 -16 -58q-12 -36 -41 -71h-664q-62 0 -109 -17q-49 -18 -88 -49
q-34 -28 -57 -71q-20 -39 -20 -88q0 -73 19 -131q18 -55 67 -131h-224q-42 53 -68 116q-28 68 -28 152q0 83 32 162q31 76 93 137q60 58 153 95q91 36 208 36h499z" />
    <glyph glyph-name="uniFB7C" unicode="&#x686;" horiz-adv-x="1503" arabic-form="initial" 
d="M786 -121h148v-155h-148v155zM676 -324h145v-157h-145v157zM563 -121h144v-155h-144v155zM717 801q-55 0 -115 -19q-58 -18 -105 -52q-48 -34 -82 -79q-33 -43 -44 -98h-228q6 100 58 186q51 83 131 144q78 59 180 91t205 32q135 0 242 -40q108 -40 186 -114t125 -179
q46 -104 63 -237q18 -135 23 -181q8 -70 15 -113q11 -65 13 -74q5 -25 17 -68h-1401q-43 0 -43 23v159q0 21 13 25q12 4 30 4h1135q-4 10 -12 38q-7 23 -13 59q-6 34 -12 72q-8 50 -11 75q-10 88 -43 152q-34 67 -81 108q-48 42 -113 64q-66 22 -133 22z" />
    <glyph glyph-name="uniFB7D" unicode="&#x686;" horiz-adv-x="1611" arabic-form="medial" 
d="M733 -121h148v-155h-148v155zM623 -324h145v-157h-145v157zM510 -121h143v-155h-143v155zM1085 211v244q0 86 -31 151t-84 109q-50 42 -120 65q-69 23 -141 23q-63 0 -126 -22q-62 -22 -109 -57q-48 -36 -81 -81q-32 -44 -43 -92h-225q8 97 57 179q51 85 128 143
q83 62 182 96q103 35 217 35q125 0 239 -41q110 -40 198 -115q84 -72 134 -178q49 -104 49 -234v-49q0 -53 18 -87q17 -33 47 -54t69 -28q38 -7 85 -7h64q17 0 29 -4q14 -5 14 -25v-159q0 -23 -43 -23h-66q-28 0 -60 9q-31 9 -62 26q-30 16 -52 40q-23 25 -35 54h-8
q-5 -25 -16 -58q-12 -36 -41 -71h-1272q-43 0 -43 23v159q0 21 13 25q12 4 30 4h1085z" />
    <glyph glyph-name="uniFB89" unicode="&#x688;" horiz-adv-x="1267" arabic-form="final" 
d="M524 1462q80 0 113 -44t33 -109v-107h-430v86h47v293h98v-199h8q29 31 62 55q34 25 69 25zM569 1288v21q0 35 -18 51q-17 16 -41 16q-43 0 -73 -29q-31 -29 -48 -59h180zM1268 211q17 0 29 -4q14 -5 14 -25v-159q0 -23 -43 -23h-66q-28 0 -60 9q-31 9 -62 26
q-30 16 -52 40q-23 25 -35 54h-8q-5 -25 -16 -58q-12 -36 -41 -71h-760v211h584v215q0 73 -18 136q-18 65 -56 108q-39 45 -98 70q-61 26 -144 26h-176v205h176q110 0 212 -31q97 -29 174 -97q76 -67 119 -171q44 -106 44 -252v-33q4 -104 66 -140q61 -36 153 -36h64z" />
    <glyph glyph-name="uniFB8B" unicode="&#x698;" horiz-adv-x="847" arabic-form="final" 
d="M344 1780h234v-240h-234v240zM170 1464h233v-239h-233v239zM516 1464h234v-239h-234v239zM557 -8q0 -232 -81 -356q-80 -123 -273 -123q-39 0 -76 5q-27 4 -55 13q-25 7 -47 18v197q64 -35 153 -35q36 0 62 10q27 11 45 40q17 29 28 85q11 58 11 146v880h233v-485
q0 -54 17 -87q17 -32 48 -54q30 -21 69 -28q38 -7 85 -7h72q18 0 30 -4q13 -4 13 -25v-159q0 -23 -43 -23h-74q-28 0 -60 9q-31 9 -62 26q-30 16 -52 40q-23 25 -35 54h-8v-137z" />
    <glyph glyph-name="uniFB8D" unicode="&#x691;" horiz-adv-x="847" arabic-form="final" 
d="M485 1462q80 0 113 -44t33 -109v-107h-430v86h47v293h98v-199h8q29 31 62 55q34 25 69 25zM530 1288v21q0 35 -18 51q-17 16 -41 16q-43 0 -73 -29q-31 -29 -48 -59h180zM557 -8q0 -232 -81 -356q-80 -123 -273 -123q-39 0 -76 5q-27 4 -55 13q-25 7 -47 18v197
q64 -35 153 -35q36 0 62 10q27 11 45 40q17 29 28 85q11 58 11 146v880h233v-485q0 -54 17 -87q17 -32 48 -54q30 -21 69 -28q38 -7 85 -7h72q18 0 30 -4q13 -4 13 -25v-159q0 -23 -43 -23h-74q-28 0 -60 9q-31 9 -62 26q-30 16 -52 40q-23 25 -35 54h-8v-137z" />
    <glyph glyph-name="uniFB8F" unicode="&#x6a9;" horiz-adv-x="2029" arabic-form="final" 
d="M2030 211q17 0 29 -4q14 -5 14 -25v-159q0 -23 -43 -23h-70q-27 0 -59 8q-30 7 -60 25q-30 17 -53 39q-26 24 -37 51h-10q-3 -17 -17 -56q-12 -36 -38 -67h-1156q-84 0 -170 25q-83 24 -145 80q-64 58 -101 147q-38 91 -38 221v137h213v-139q0 -260 241 -260h971v242
q0 163 -74 237t-192 74h-545v207l492 493h282l-485 -493h246q142 0 240 -34q102 -35 161 -99q62 -67 89 -163q28 -101 28 -222v-54q0 -104 50 -146q49 -42 126 -42h111z" />
    <glyph glyph-name="uniFB90" unicode="&#x6a9;" horiz-adv-x="1349" arabic-form="initial" 
d="M1006 211v242q0 163 -74 237t-193 74h-647v207l492 493h282l-485 -493h348q143 0 241 -34q100 -35 160 -99q64 -69 90 -163q27 -97 27 -222v-453h-1247q-43 0 -43 23v159q0 21 13 25q12 4 30 4h1006z" />
    <glyph glyph-name="uniFB91" unicode="&#x6a9;" horiz-adv-x="1533" arabic-form="medial" 
d="M1534 211q18 0 30 -4q13 -4 13 -25v-159q0 -23 -43 -23h-70q-27 0 -59 8q-28 7 -59 25q-32 19 -54 39q-26 24 -37 51h-10q-5 -24 -16 -56q-12 -34 -39 -67h-1190q-43 0 -43 23v159q0 21 13 25q12 4 30 4h1006v242q0 163 -74 237t-193 74h-647v207l492 493h282l-485 -493
h348q143 0 241 -34q100 -35 160 -99q64 -69 90 -163q27 -97 27 -222v-54q0 -104 50 -146q49 -42 126 -42h111z" />
    <glyph glyph-name="uniFB93" unicode="&#x6af;" horiz-adv-x="2029" arabic-form="final" 
d="M512 954h-219l487 510h224zM2030 211q17 0 29 -4q14 -5 14 -25v-159q0 -23 -43 -23h-70q-27 0 -59 8q-30 7 -60 25q-30 17 -53 39q-26 24 -37 51h-10q-3 -17 -17 -56q-12 -36 -38 -67h-1156q-84 0 -170 25q-83 24 -145 80q-64 58 -101 147q-38 91 -38 221v137h213v-139
q0 -260 241 -260h971v242q0 163 -74 237t-192 74h-545v207l492 493h282l-485 -493h246q142 0 240 -34q102 -35 161 -99q62 -67 89 -163q28 -101 28 -222v-54q0 -104 50 -146q49 -42 126 -42h111z" />
    <glyph glyph-name="uniFB94" unicode="&#x6af;" horiz-adv-x="1677" arabic-form="initial" 
d="M256 954h-219l487 510h224zM1333 211v242q0 164 -73 237q-74 74 -193 74h-647v207l491 493h283l-485 -493h348q142 0 240 -34q102 -35 161 -99q62 -67 89 -163q28 -101 28 -222v-453h-1575q-43 0 -43 23v159q0 21 13 25q12 4 30 4h1333z" />
    <glyph glyph-name="uniFB95" unicode="&#x6af;" horiz-adv-x="1867" arabic-form="medial" 
d="M1868 211q17 0 29 -4q14 -5 14 -25v-159q0 -23 -43 -23h-70q-27 0 -59 8q-30 7 -60 25q-30 17 -53 39q-26 24 -37 51h-10q-5 -24 -16 -56q-12 -34 -39 -67h-1524q-43 0 -43 23v159q0 21 13 25q12 4 30 4h1339v242q0 164 -73 237q-74 74 -193 74h-647v207l492 493h282
l-485 -493h348q143 0 241 -34q100 -35 160 -99q62 -67 89 -163q28 -101 28 -222v-54q0 -104 50 -146q49 -42 126 -42h111zM262 954h-219l487 510h224z" />
    <glyph glyph-name="uniFB9F" unicode="&#x6ba;" horiz-adv-x="1873" arabic-form="final" 
d="M797 -487q-352 0 -543 224q-193 226 -193 658v178h228v-178q0 -179 30 -306q29 -125 93 -210q61 -82 156 -121t225 -39q129 0 232 39q104 39 177 121q74 83 113 210t39 306v221h233v-217q0 -55 18 -92t46 -58q32 -23 68 -30q43 -8 87 -8h68q18 0 30 -4q13 -4 13 -25v-159
q0 -23 -43 -23h-70q-77 0 -145 41q-67 40 -82 111h-8q-22 -125 -76 -242q-53 -115 -145 -204q-91 -88 -229 -141q-135 -52 -322 -52z" />
    <glyph glyph-name="uniFBA5" unicode="&#x6c0;" horiz-adv-x="1236" arabic-form="final" 
d="M430 1366h70v8q-15 16 -24 41q-9 24 -9 47q0 72 43 111q44 39 121 39q60 0 107 -34q49 -35 53 -112h-93q-1 28 -20 48q-18 20 -47 20q-28 0 -47 -22t-19 -60t21 -62t57 -24h152v-84h-365v84zM1180 0q-68 0 -119 19t-95 52t-71 74q-30 45 -47 93q-47 -66 -125 -116
q-79 -50 -180 -50q-78 0 -159 24q-80 24 -147 77q-69 55 -109 134q-42 82 -42 197q0 96 29 183q28 85 86 149q57 63 145 99q89 36 205 36h463v-547q0 -119 44 -166t122 -47h57q18 0 30 -4q13 -4 13 -25v-159q0 -23 -43 -23h-57zM543 274q99 0 168 60t69 180v252h-229
q-96 0 -163 -70q-66 -69 -66 -192q0 -121 63 -175q64 -55 158 -55z" />
    <glyph glyph-name="uniFBA7" unicode="&#x6c1;" horiz-adv-x="1230" arabic-form="final" 
d="M1231 211q18 0 30 -4q13 -4 13 -25v-159q0 -23 -43 -23h-78q-77 0 -148 23q-70 23 -119 63q-51 42 -80 100q-30 60 -30 133v406h-244q-61 0 -101 -20q-42 -21 -67 -58t-37 -85t-12 -103v-248h-229v252q0 98 30 188q30 91 91 159q63 70 154 110q94 41 219 41h426v-537
q0 -120 37 -166q38 -47 128 -47h60z" />
    <glyph glyph-name="uniFBA8" unicode="&#x6c1;" horiz-adv-x="735" arabic-form="initial" 
d="M0 0q-43 0 -43 23v159q0 21 13 25q12 4 30 4h379v661h233v-872h-196v-176q0 -66 25 -91q26 -26 91 -26h70v-141h-70q-140 0 -213 57t-73 201v106q0 34 2 70h-248z" />
    <glyph glyph-name="uniFBA9" unicode="&#x6c1;" horiz-adv-x="1638" arabic-form="medial" 
d="M1638 211q18 0 30 -4q13 -4 13 -25v-159q0 -23 -43 -23h-71q-61 0 -122 35q-60 35 -87 94h-8q-4 -17 -17 -58q-12 -36 -41 -71h-1292q-43 0 -43 23v159q0 21 13 25q12 4 30 4h168q-25 32 -41 82q-14 43 -14 113q0 77 21 137q20 57 59 101t86 68q50 26 104 36
q60 116 174 187q115 71 281 71q272 0 392 -128q120 -127 120 -389v-90q0 -57 17 -92q18 -37 46 -58q31 -23 69 -30q43 -8 87 -8h69zM803 406q0 -63 -16 -113q-16 -48 -39 -82h368v278q0 170 -76 246t-202 76q-73 0 -131 -25q-56 -24 -91 -65q82 -36 134 -113q53 -79 53 -202
zM459 598q-73 0 -120 -50q-46 -49 -46 -142t48 -150t118 -57q69 0 116 57q48 59 48 150q0 92 -45 142t-119 50z" />
    <glyph glyph-name="uniFBAB" unicode="&#x6be;" horiz-adv-x="2013" arabic-form="final" 
d="M2013 211q18 0 30 -4q13 -4 13 -25v-159q0 -23 -43 -23h-74q-55 0 -119 35q-62 34 -89 94h-9q-5 -28 -16 -59q-12 -35 -41 -70h-1214q-86 0 -121 -26t-35 -105v-37h-244v49q0 94 29 158q28 63 81 102q54 40 125 55q72 15 163 15h92q-25 32 -41 82q-15 46 -15 113
q0 74 22 137q21 59 58 101q39 44 86 68q49 26 105 36q60 116 174 187q115 71 280 71q273 0 393 -128q119 -126 119 -389v-102q4 -104 66 -140t154 -36h71zM1176 406q0 -63 -16 -113q-15 -46 -40 -82h369v278q0 170 -76 246t-203 76q-73 0 -131 -25q-55 -24 -90 -65
q80 -35 133 -113q54 -80 54 -202zM831 598q-72 0 -119 -50q-46 -49 -46 -142t48 -150t117 -57q70 0 117 57q47 58 47 150t-45 142t-119 50z" />
    <glyph glyph-name="uniFBAC" unicode="&#x6be;" horiz-adv-x="1452" arabic-form="initial" 
d="M113 406q0 77 21 137q20 57 59 101t86 68q50 26 104 36q60 116 174 187q115 71 281 71q272 0 392 -128q120 -127 120 -389v-489h-1350q-43 0 -43 23v159q0 21 13 25q12 4 30 4h168q-25 32 -41 82q-14 43 -14 113zM803 406q0 -63 -16 -113q-16 -48 -39 -82h368v278
q0 170 -76 246t-202 76q-73 0 -131 -25q-56 -24 -91 -65q82 -36 134 -113q53 -79 53 -202zM459 598q-73 0 -120 -50q-46 -49 -46 -142t48 -150t118 -57q69 0 116 57q48 59 48 150q0 92 -45 142t-119 50z" />
    <glyph glyph-name="uniFBAD" unicode="&#x6be;" horiz-adv-x="1638" arabic-form="medial" 
d="M1638 211q18 0 30 -4q13 -4 13 -25v-159q0 -23 -43 -23h-71q-61 0 -122 35q-60 35 -87 94h-8q-4 -17 -17 -58q-12 -36 -41 -71h-1292q-43 0 -43 23v159q0 21 13 25q12 4 30 4h168q-25 32 -41 82q-14 43 -14 113q0 77 21 137q20 57 59 101t86 68q50 26 104 36
q60 116 174 187q115 71 281 71q272 0 392 -128q120 -127 120 -389v-90q0 -57 17 -92q18 -37 46 -58q31 -23 69 -30q43 -8 87 -8h69zM803 406q0 -63 -16 -113q-16 -48 -39 -82h368v278q0 170 -76 246t-202 76q-73 0 -131 -25q-56 -24 -91 -65q82 -36 134 -113q53 -79 53 -202
zM459 598q-73 0 -120 -50q-46 -49 -46 -142t48 -150t118 -57q69 0 116 57q48 59 48 150q0 92 -45 142t-119 50z" />
    <glyph glyph-name="uniFBAF" unicode="&#x6d2;" horiz-adv-x="1837" arabic-form="final" 
d="M958 0h-331q-65 0 -126 -22q-59 -21 -101 -63q-43 -43 -66 -104q-25 -66 -25 -143v-28h996q119 0 170 69t51 193v137h223v-139q0 -244 -104 -357q-105 -114 -281 -114h-1288v227q0 136 29 235q30 103 97 174q65 70 171 106q105 36 254 36h331v-207z" />
    <glyph glyph-name="uniFBB1" unicode="&#x6d3;" horiz-adv-x="1837" arabic-form="final" 
d="M580 520h69v8q-13 14 -23 41t-10 47q0 72 43 111t121 39q61 0 108 -34q48 -34 52 -111h-92q-1 27 -21 48q-18 19 -47 19t-47 -21t-18 -61q0 -39 20 -62q21 -24 58 -24h151v-84h-364v84zM958 0h-331q-65 0 -126 -22q-59 -21 -101 -63q-43 -43 -66 -104q-25 -66 -25 -143
v-28h996q119 0 170 69t51 193v137h223v-139q0 -244 -104 -357q-105 -114 -281 -114h-1288v227q0 136 29 235q30 103 97 174q65 70 171 106q105 36 254 36h331v-207z" />
    <glyph glyph-name="uniFBE8" unicode="&#x649;" horiz-adv-x="735" arabic-form="initial" 
d="M379 211v661h233v-872h-612q-43 0 -43 23v159q0 21 13 25q12 4 30 4h379z" />
    <glyph glyph-name="uniFBE9" unicode="&#x649;" horiz-adv-x="972" arabic-form="medial" 
d="M885 0q-48 0 -86 17q-43 19 -76 45q-34 26 -60 62q-28 37 -38 66q-51 -96 -147 -144q-92 -46 -183 -46h-295q-43 0 -43 23v159q0 21 13 25q12 4 30 4h297q23 0 45 7q25 8 46 26q20 17 36 49q14 28 14 78v501h234v-430q0 -55 20 -96q21 -43 52 -73q31 -29 69 -46
q36 -16 72 -16h88q17 0 29 -4q14 -5 14 -25v-159q0 -23 -43 -23h-88z" />
    <glyph glyph-name="uniFBFD" unicode="&#x6cc;" horiz-adv-x="1552" arabic-form="final" 
d="M821 -569q-213 0 -357 57q-146 58 -234 161q-89 105 -128 250q-40 149 -41 324h211q2 -158 39 -269q38 -112 108 -182q71 -71 172 -105t234 -34q95 0 184 14q82 13 147 44q61 29 98 80q36 50 36 120q0 13 -6 31t-18 36t-30 30t-38 12q-25 0 -52 4q-28 4 -64 12
q-30 7 -68 23t-64 33v202q20 -13 67 -26q53 -15 89 -21q46 -7 92 -12q40 -4 76 -4h278q18 0 30 -4q13 -4 13 -25v-159q0 -23 -43 -23h-143q28 -30 47 -81q19 -52 19 -91q0 -78 -42 -150t-124 -127q-81 -55 -204 -88q-118 -32 -284 -32z" />
    <glyph glyph-name="uniFBFE" unicode="&#x6cc;" horiz-adv-x="735" arabic-form="initial" 
d="M20 -195h234v-239h-234v239zM367 -195h233v-239h-233v239zM379 211v661h233v-872h-612q-43 0 -43 23v159q0 21 13 25q12 4 30 4h379z" />
    <glyph glyph-name="uniFBFF" unicode="&#x6cc;" horiz-adv-x="972" arabic-form="medial" 
d="M55 -195h234v-239h-234v239zM401 -195h234v-239h-234v239zM885 0q-48 0 -86 17q-43 19 -76 45q-34 26 -60 62q-28 37 -38 66q-51 -96 -147 -144q-92 -46 -183 -46h-295q-43 0 -43 23v159q0 21 13 25q12 4 30 4h297q23 0 45 7q25 8 46 26q20 17 36 49q14 28 14 78v501h234
v-430q0 -55 20 -96q21 -43 52 -73q31 -29 69 -46q36 -16 72 -16h88q17 0 29 -4q14 -5 14 -25v-159q0 -23 -43 -23h-88z" />
    <glyph glyph-name="uniFC31" unicode="&#xfc31;" horiz-adv-x="2560" arabic-form="isolated" 
d="M821 -569q-213 0 -357 57q-146 58 -234 161q-89 105 -128 250q-40 149 -41 324h211q2 -158 39 -269q38 -112 108 -182q71 -71 172 -105t234 -34q95 0 184 14q82 13 147 44q61 29 98 80q36 50 36 120q0 13 -6 31t-18 36t-30 30t-38 12q-25 0 -52 4q-28 4 -64 12
q-30 7 -68 23t-64 33v202q20 -13 67 -26q53 -15 89 -21q46 -7 92 -12q40 -4 76 -4h12h266h13h20v8q-17 10 -42 38q-22 24 -43 67q-19 37 -34 85q-14 43 -14 93q0 122 38 216q38 95 106 158q68 64 162 97q93 33 204 33q108 0 204 -31q91 -29 162 -94q68 -62 106 -158t38 -221
q0 -128 -37 -221q-37 -94 -103 -157t-161 -93q-98 -31 -209 -31h-553q28 -30 47 -81q19 -52 19 -91q0 -78 -42 -150t-124 -127q-81 -55 -204 -88q-118 -32 -284 -32zM1962 803q-133 0 -201 -83q-67 -82 -67 -218t68 -217q69 -82 200 -82t200 82q68 81 68 217t-67 218
q-68 83 -201 83zM1868 1466h233v-239h-233v239z" />
    <glyph glyph-name="uniFC32" unicode="&#xfc32;" horiz-adv-x="2560" arabic-form="isolated" 
d="M821 -569q-213 0 -357 57q-146 58 -234 161q-89 105 -128 250q-40 149 -41 324h211q2 -158 39 -269q38 -112 108 -182q71 -71 172 -105t234 -34q95 0 184 14q82 13 147 44q61 29 98 80q36 50 36 120q0 13 -6 31t-18 36t-30 30t-38 12q-25 0 -52 4q-28 4 -64 12
q-30 7 -68 23t-64 33v202q20 -13 67 -26q53 -15 89 -21q46 -7 92 -12q40 -4 76 -4h12h266h13h20v8q-17 10 -42 38q-22 24 -43 67q-19 37 -34 85q-14 43 -14 93q0 122 38 216q38 95 106 158q68 64 162 97q93 33 204 33q108 0 204 -31q91 -29 162 -94q68 -62 106 -158t38 -221
q0 -128 -37 -221q-37 -94 -103 -157t-161 -93q-98 -31 -209 -31h-553q28 -30 47 -81q19 -52 19 -91q0 -78 -42 -150t-124 -127q-81 -55 -204 -88q-118 -32 -284 -32zM1962 803q-133 0 -201 -83q-67 -82 -67 -218t68 -217q69 -82 200 -82t200 82q68 81 68 217t-67 218
q-68 83 -201 83zM1868 1466h233v-239h-233v239zM530 -721h234v-240h-234v240zM877 -721h233v-240h-233v240z" />
    <glyph glyph-name="uniFC35" unicode="&#xfc35;" horiz-adv-x="2560" arabic-form="isolated" 
d="M821 -569q-213 0 -357 57q-146 58 -234 161q-89 105 -128 250q-40 149 -41 324h211q2 -158 39 -269q38 -112 108 -182q71 -71 172 -105t234 -34q95 0 184 14q82 13 147 44q61 29 98 80q36 50 36 120q0 13 -6 31t-18 36t-30 30t-38 12q-25 0 -52 4q-28 4 -64 12
q-30 7 -68 23t-64 33v202q20 -13 67 -26q53 -15 89 -21q46 -7 92 -12q40 -4 76 -4h12h266h13h20v8q-17 10 -42 38q-22 24 -43 67q-19 37 -34 85q-14 43 -14 93q0 122 38 216q38 95 106 158q68 64 162 97q93 33 204 33q108 0 204 -31q91 -29 162 -94q68 -62 106 -158t38 -221
q0 -128 -37 -221q-37 -94 -103 -157t-161 -93q-98 -31 -209 -31h-553q28 -30 47 -81q19 -52 19 -91q0 -78 -42 -150t-124 -127q-81 -55 -204 -88q-118 -32 -284 -32zM1962 803q-133 0 -201 -83q-67 -82 -67 -218t68 -217q69 -82 200 -82t200 82q68 81 68 217t-67 218
q-68 83 -201 83zM1704 1464h233v-239h-233v239zM2050 1464h234v-239h-234v239z" />
    <glyph glyph-name="uniFC36" unicode="&#xfc36;" horiz-adv-x="2560" arabic-form="isolated" 
d="M821 -569q-213 0 -357 57q-146 58 -234 161q-89 105 -128 250q-40 149 -41 324h211q2 -158 39 -269q38 -112 108 -182q71 -71 172 -105t234 -34q95 0 184 14q82 13 147 44q61 29 98 80q36 50 36 120q0 13 -6 31t-18 36t-30 30t-38 12q-25 0 -52 4q-28 4 -64 12
q-30 7 -68 23t-64 33v202q20 -13 67 -26q53 -15 89 -21q46 -7 92 -12q40 -4 76 -4h12h266h13h20v8q-17 10 -42 38q-22 24 -43 67q-19 37 -34 85q-14 43 -14 93q0 122 38 216q38 95 106 158q68 64 162 97q93 33 204 33q108 0 204 -31q91 -29 162 -94q68 -62 106 -158t38 -221
q0 -128 -37 -221q-37 -94 -103 -157t-161 -93q-98 -31 -209 -31h-553q28 -30 47 -81q19 -52 19 -91q0 -78 -42 -150t-124 -127q-81 -55 -204 -88q-118 -32 -284 -32zM1962 803q-133 0 -201 -83q-67 -82 -67 -218t68 -217q69 -82 200 -82t200 82q68 81 68 217t-67 218
q-68 83 -201 83zM1704 1464h233v-239h-233v239zM2050 1464h234v-239h-234v239zM530 -721h234v-240h-234v240zM877 -721h233v-240h-233v240z" />
    <glyph glyph-name="uniFC3D" unicode="&#xfc3d;" horiz-adv-x="2541" arabic-form="isolated" 
d="M823 -569q-213 0 -357 57q-146 58 -234 161q-89 105 -128 250q-40 149 -41 324h211q2 -158 39 -269q38 -112 108 -182q71 -71 172 -105t234 -34q95 0 184 14q82 13 147 44q61 29 98 80q36 50 36 120q0 13 -6 31t-18 36t-30 30t-38 12q-25 0 -52 4q-28 4 -64 12
q-30 7 -68 23t-64 33v202q20 -13 67 -26q53 -15 89 -21q46 -7 92 -12q40 -4 76 -4h278h13h633v242q0 163 -74 237t-193 74h-647v207l492 493h282l-485 -493h348q143 0 241 -34q100 -35 160 -99q64 -69 90 -163q27 -97 27 -222v-453h-878h-9h-143q28 -30 47 -81
q19 -52 19 -91q0 -78 -42 -150t-124 -127q-81 -55 -204 -88q-118 -32 -284 -32z" />
    <glyph glyph-name="uniFC3E" unicode="&#xfc3e;" horiz-adv-x="2541" arabic-form="isolated" 
d="M823 -569q-213 0 -357 57q-146 58 -234 161q-89 105 -128 250q-40 149 -41 324h211q2 -158 39 -269q38 -112 108 -182q71 -71 172 -105t234 -34q95 0 184 14q82 13 147 44q61 29 98 80q36 50 36 120q0 13 -6 31t-18 36t-30 30t-38 12q-25 0 -52 4q-28 4 -64 12
q-30 7 -68 23t-64 33v202q20 -13 67 -26q53 -15 89 -21q46 -7 92 -12q40 -4 76 -4h278h13h633v242q0 163 -74 237t-193 74h-647v207l492 493h282l-485 -493h348q143 0 241 -34q100 -35 160 -99q64 -69 90 -163q27 -97 27 -222v-453h-878h-9h-143q28 -30 47 -81
q19 -52 19 -91q0 -78 -42 -150t-124 -127q-81 -55 -204 -88q-118 -32 -284 -32zM510 -721h233v-240h-233v240zM856 -721h234v-240h-234v240z" />
    <glyph glyph-name="uniFC43" unicode="&#xfc43;" horiz-adv-x="1896" arabic-form="isolated" 
d="M821 -569q-213 0 -357 57q-146 58 -234 161q-89 105 -128 250q-40 149 -41 324h211q2 -158 39 -269q38 -112 108 -182q71 -71 172 -105t234 -34q95 0 184 14q82 13 147 44q61 29 98 80q36 50 36 120q0 13 -6 31t-18 36t-30 30t-38 12q-25 0 -52 4q-28 4 -64 12
q-30 7 -68 23t-64 33v202q16 -11 61 -25q41 -13 81 -20q60 -10 85 -13q47 -5 76 -5h287v1253h234v-1464h-213h-9h-143q28 -30 47 -81q19 -52 19 -91q0 -78 -42 -150t-124 -127q-81 -55 -204 -88q-118 -32 -284 -32z" />
    <glyph glyph-name="uniFC44" unicode="&#xfc44;" horiz-adv-x="1896" arabic-form="isolated" 
d="M821 -569q-213 0 -357 57q-146 58 -234 161q-89 105 -128 250q-40 149 -41 324h211q2 -158 39 -269q38 -112 108 -182q71 -71 172 -105t234 -34q95 0 184 14q82 13 147 44q61 29 98 80q36 50 36 120q0 13 -6 31t-18 36t-30 30t-38 12q-25 0 -52 4q-28 4 -64 12
q-30 7 -68 23t-64 33v202q16 -11 61 -25q41 -13 81 -20q60 -10 85 -13q47 -5 76 -5h287v1253h234v-1464h-213h-9h-143q28 -30 47 -81q19 -52 19 -91q0 -78 -42 -150t-124 -127q-81 -55 -204 -88q-118 -32 -284 -32zM551 -721h233v-240h-233v240zM897 -721h234v-240h-234v240
z" />
    <glyph glyph-name="uniFC53" unicode="&#xfc53;" horiz-adv-x="2672" arabic-form="isolated" 
d="M821 -569q-213 0 -357 57q-146 58 -234 161q-89 105 -128 250q-40 149 -41 324h211q2 -158 39 -269q38 -112 108 -182q71 -71 172 -105t234 -34q95 0 184 14q82 13 147 44q61 29 98 80q36 50 36 120q0 13 -6 31t-18 36t-30 30t-38 12q-25 0 -52 4q-28 4 -64 12
q-30 7 -68 23t-64 33v202q16 -11 61 -25q41 -13 81 -20q60 -10 85 -13q47 -5 76 -5h136q-25 32 -41 82q-15 46 -15 113q0 74 22 137q21 59 58 101q39 44 86 68q49 26 105 36q60 116 174 187q115 71 280 71q272 0 392 -128q120 -127 120 -389v-489h-1009h-9h-143
q28 -30 47 -81q19 -52 19 -91q0 -78 -42 -150t-124 -127q-81 -55 -204 -88q-118 -32 -284 -32zM2023 406q0 -66 -15 -113q-15 -46 -40 -82h369v278q0 170 -76 246t-203 76q-73 0 -131 -25q-55 -24 -90 -65q80 -35 133 -113q53 -79 53 -202zM1679 598q-72 0 -119 -50
t-47 -142t49 -150q48 -57 117 -57q71 0 117 57q47 58 47 150t-45 142t-119 50z" />
    <glyph glyph-name="uniFC54" unicode="&#xfc54;" horiz-adv-x="2672" arabic-form="isolated" 
d="M821 -569q-213 0 -357 57q-146 58 -234 161q-89 105 -128 250q-40 149 -41 324h211q2 -158 39 -269q38 -112 108 -182q71 -71 172 -105t234 -34q95 0 184 14q82 13 147 44q61 29 98 80q36 50 36 120q0 13 -6 31t-18 36t-30 30t-38 12q-25 0 -52 4q-28 4 -64 12
q-30 7 -68 23t-64 33v202q16 -11 61 -25q41 -13 81 -20q60 -10 85 -13q47 -5 76 -5h136q-25 32 -41 82q-15 46 -15 113q0 74 22 137q21 59 58 101q39 44 86 68q49 26 105 36q60 116 174 187q115 71 280 71q272 0 392 -128q120 -127 120 -389v-489h-1009h-9h-143
q28 -30 47 -81q19 -52 19 -91q0 -78 -42 -150t-124 -127q-81 -55 -204 -88q-118 -32 -284 -32zM2023 406q0 -66 -15 -113q-15 -46 -40 -82h369v278q0 170 -76 246t-203 76q-73 0 -131 -25q-55 -24 -90 -65q80 -35 133 -113q53 -79 53 -202zM1679 598q-72 0 -119 -50
t-47 -142t49 -150q48 -57 117 -57q71 0 117 57q47 58 47 150t-45 142t-119 50zM465 -721h233v-240h-233v240zM811 -721h233v-240h-233v240z" />
    <glyph glyph-name="uni064C0651" unicode="&#xfc5e;" arabic-form="isolated" 
d="M-94 1851q34 0 65 20q33 21 58 48q-14 1 -33 11q-17 8 -35 25q-16 15 -27 35q-10 19 -10 44q0 53 31 79q29 25 74 25q46 0 79 -28q31 -27 31 -89q0 -42 -20 -79q-23 -42 -54 -72q-33 -32 -75 -52t-84 -20q-43 0 -76 33t-33 90h-37v45h45q22 0 34 -9q11 -8 11 -36
q0 -27 14 -49q14 -21 42 -21zM-16 2030q0 -25 22 -43q23 -19 53 -23l7.5 15t7.5 17q6 15 6 27q0 27 -13 44q-13 18 -38 18q-19 0 -32 -15q-13 -14 -13 -40zM-125 1505q-35 0 -59 18q-25 19 -41 74l-21 82l70 21l18 -66q7 -27 22 -45q13 -16 32 -16q25 0 42 16t17 41v6
q0 2 -2 14q0 3 -1.5 7t-3 9.5t-2.5 10.5t-6 21.5t-8 27.5l68 21l16 -66q7 -27 26 -43q17 -14 34 -14q26 0 40 15q13 14 13 38v6q0 1 -2 15l-7 28q-1 3 -6 21t-8 31l70 18q4 -16 10 -38.5t7 -24.5q6 -23 9 -36q1 -5 2.5 -11.5t1.5 -8.5q1 -4 1 -12q0 -47 -35 -76
q-34 -28 -86 -28q-25 0 -48 13t-40 42q0 -51 -35 -81q-34 -30 -88 -30z" />
    <glyph glyph-name="uni064D0651" unicode="&#xfc5f;" arabic-form="isolated" 
d="M-139 1892q-36 0 -60 18q-25 18 -41 75l-20 81l70 21l18 -66q8 -29 21 -45t32 -16q25 0 42 16q18 16 18 41v6q0 2 -2 14l-4 12t-4 15q-1 5 -5.5 22t-7.5 28l68 20l16 -66q7 -27 26 -43q17 -14 33 -14q27 0 40 15q14 16 14 38v7l-2 14q-1 4 -4 14t-4 15q0 1 -5 19.5
t-8 31.5l70 18q3 -13 8.5 -34t7.5 -29q6 -22 9 -36q1 -5 2.5 -11.5t1.5 -8.5q2 -8 2 -12q0 -47 -35 -76q-34 -28 -86 -28q-25 0 -48 13t-40 42q0 -51 -35 -81q-34 -30 -88 -30zM-147 1528l-23 86l414 110l22 -86zM-186 1679l-23 86l414 111l22 -86z" />
    <glyph glyph-name="uni064E0651" unicode="&#xfc60;" arabic-form="isolated" 
d="M-98 1513q-36 0 -60 18q-25 18 -41 75l-20 82l69 20l19 -66q7 -28 21 -45q13 -16 32 -16q25 0 42 16q18 17 18 41v7q0 1 -2 13q-1 3 -4 12.5t-4 15.5q-1 5 -5.5 21.5l-7.5 27.5l68 20l16 -65q7 -27 26 -43q18 -15 33 -15q26 0 40 16t14 38v6q0 1 -0.5 3t-1 5t-0.5 6
q-1 4 -4 14t-4 15l-5 19q-5 19 -8 32l70 18q4 -13 9 -34.5t7 -28.5q6 -23 9 -36q1 -4 2.5 -10.5t1.5 -8.5q1 -4 1 -13q0 -48 -34 -76t-86 -28q-25 0 -48 13t-40 42q0 -51 -35 -81q-34 -30 -88 -30zM-221 1794l-23 86l414 111l23 -86z" />
    <glyph glyph-name="uni064F0651" unicode="&#xfc61;" arabic-form="isolated" 
d="M-141 1405q-37 0 -60 17q-25 18 -41 75l-20 82l69 20l19 -65q8 -28 21 -45q13 -16 32 -16q25 0 42 16q18 17 18 41v6q0 1 -2 13q-1 3 -4 12.5t-4 15.5q-1 5 -5.5 21.5l-7.5 27.5l68 21l16 -66q7 -27 26 -43q17 -14 33 -14q27 0 40 15q14 16 14 38v6q0 1 -0.5 3t-1 5
t-0.5 6q-1 4 -4 14t-4 15q0 1 -5 19.5t-8 31.5l70 19q4 -14 9 -35.5t7 -28.5q6 -22 9 -36q1 -5 2 -11t2 -8q1 -4 1 -12q0 -48 -34 -76q-35 -29 -86 -29q-23 0 -48 14q-23 13 -40 42q0 -51 -35 -81t-88 -30zM-137 1763q41 0 80 24q38 23 71 58q-21 5 -41 16q-24 13 -43 29
q-17 15 -33 43q-14 25 -14 56q0 65 38 97t93 32q57 0 97 -35q39 -35 39 -111q0 -48 -26 -98q-23 -45 -67 -89q-41 -41 -92 -65t-102 -24v67zM-43 1982q0 -30 29 -53q28 -22 65 -28q13 26 18 39q7 18 7 36q0 32 -17 54q-16 20 -45 20q-24 0 -41 -18q-16 -17 -16 -50z" />
    <glyph glyph-name="uni06500651" unicode="&#xfc62;" arabic-form="isolated" 
d="M-125 1753q-36 0 -59 17q-25 18 -41 75l-21 82l70 21l18 -66q7 -27 22 -45q13 -16 32 -16q25 0 42 16t17 41v6q0 1 -2 13l-7 28q-1 5 -6 21.5t-8 27.5l68 21l16 -66q7 -27 26 -43q17 -14 34 -14q26 0 40 15q13 14 13 38v6q0 1 -2 15q0 3 -1 7t-3 10.5t-3 10.5
q-1 3 -6 20.5t-8 30.5l70 19q2 -9 17 -64q7 -27 9 -35q1 -5 2.5 -11.5t1.5 -8.5q1 -4 1 -12q0 -47 -35 -76t-86 -29q-23 0 -48 14q-23 13 -40 42q0 -51 -35 -81q-34 -30 -88 -30zM-178 1520l-23 86l414 110l23 -86z" />
    <glyph glyph-name="uni06510670" unicode="&#xfc63;" arabic-form="isolated" 
d="M-96 1556q-49 0 -87 26t-38 104v90h88v-76q0 -31 9 -49q10 -19 34 -19q21 1 37 17q14 14 14 51v78h90v-80q0 -34 15 -49t36 -15q22 0 33 18q10 17 10 46v78h88v-90q0 -82 -36 -105q-39 -25 -88 -25q-35 0 -64 18t-39 60q-12 -40 -40 -59q-29 -19 -62 -19zM-43 2079h76
v-238h-76v238z" />
    <glyph glyph-name="uniFC86" unicode="&#xfc86;" horiz-adv-x="2068" arabic-form="final" 
d="M1987 0q-48 0 -86 17q-43 19 -76 45q-36 28 -61 62q-28 37 -38 66q-51 -96 -139 -141q-87 -44 -178 -49q28 -30 47 -81q19 -52 19 -91q0 -78 -42 -150t-124 -127q-81 -55 -204 -88q-118 -32 -284 -32q-213 0 -357 57q-146 58 -234 161q-89 105 -128 250q-40 149 -41 324
h211q2 -158 39 -269q38 -112 108 -182q71 -71 172 -105t234 -34q95 0 184 14q82 13 147 44q61 29 98 80q36 50 36 120q0 13 -6 31t-18 36t-30 30t-38 12q-25 0 -52 4q-28 4 -64 12q-30 7 -68 23t-64 33v202q16 -11 61 -25q40 -13 80 -20q56 -10 85 -13q48 -5 77 -5h146
q23 0 45 7q25 8 46 26q20 17 36 49q14 28 14 78v1093h234v-1032q0 -53 20 -92q22 -43 52 -70q32 -29 70 -44t71 -15h81q18 0 30 -4q13 -4 13 -25v-159q0 -23 -43 -23h-81z" />
    <glyph glyph-name="uniFC87" unicode="&#xfc87;" horiz-adv-x="2068" arabic-form="final" 
d="M1987 0q-48 0 -86 17q-43 19 -76 45q-36 28 -61 62q-28 37 -38 66q-51 -96 -139 -141q-87 -44 -178 -49q28 -30 47 -81q19 -52 19 -91q0 -78 -42 -150t-124 -127q-81 -55 -204 -88q-118 -32 -284 -32q-213 0 -357 57q-146 58 -234 161q-89 105 -128 250q-40 149 -41 324
h211q2 -158 39 -269q38 -112 108 -182q71 -71 172 -105t234 -34q95 0 184 14q82 13 147 44q61 29 98 80q36 50 36 120q0 13 -6 31t-18 36t-30 30t-38 12q-25 0 -52 4q-28 4 -64 12q-30 7 -68 23t-64 33v202q16 -11 61 -25q40 -13 80 -20q56 -10 85 -13q48 -5 77 -5h146
q23 0 45 7q25 8 46 26q20 17 36 49q14 28 14 78v1093h234v-1032q0 -53 20 -92q22 -43 52 -70q32 -29 70 -44t71 -15h81q18 0 30 -4q13 -4 13 -25v-159q0 -23 -43 -23h-81zM504 -721h233v-240h-233v240zM850 -721h233v-240h-233v240z" />
    <glyph glyph-name="uniFDF2" unicode="&#xfdf2;" horiz-adv-x="3069" arabic-form="isolated" 
d="M1182 0q-68 0 -119 19t-95 52t-71 74q-30 45 -47 93q-47 -66 -125 -116q-79 -50 -180 -50q-78 0 -159 24q-80 24 -147 77q-69 55 -109 134q-42 82 -42 197q0 96 29 183q28 85 86 149q57 63 145 99t205 36h463v-547q0 -119 44 -166t122 -47h192q23 0 45 7q25 8 46 26
q20 17 36 49q15 30 15 78v1093h233v-1032q0 -51 20 -90q22 -42 53 -70q32 -28 69 -45q36 -16 71 -16h209v1253h233v-1464h-442q-48 0 -86 17q-43 19 -76 45q-34 26 -60 62q-28 37 -38 66q-53 -97 -147 -144q-92 -46 -183 -46h-190zM545 274q99 0 168 60t69 180v252h-229
q-96 0 -163 -70q-66 -69 -66 -192q0 -121 63 -175q64 -55 158 -55zM2714 0v1464h233v-1464h-233z" />
    <glyph glyph-name="uniFDFA" unicode="&#xfdfa;" horiz-adv-x="2164" arabic-form="isolated" 
d="M2083 895q0 -29 -33 -80q-29 -47 -63 -63q-90 -43 -238 -43q-31 0 -47 1q-24 2 -51 3q-50 -97 -78 -97q-8 0 -8 13q0 30 45 96q-85 33 -99 53q-80 -53 -102 -53q15 -291 51 -360q38 -75 172 -82l4 4q-43 30 -43 88q0 69 66 155q49 66 125 66q56 0 108 -35q50 -33 50 -63
q-54 18 -107 18q-72 0 -133 -29q-53 -29 -53 -55q0 -29 51 -80q52 -53 90 -59q39 5 139 37q103 33 137 51l-34 -76q-55 -29 -153 -57q-87 -25 -161 -40q-64 -13 -80 -13l2 2q-197 0 -243 149q-61 -133 -117 -133q-53 0 -137 90q-130 -115 -404 -115q-29 0 -77 5q-37 2 -66 6
q8 -68 18 -107q18 -72 48 -102q90 -90 360 -90q233 0 338 65q30 76 57 76q8 0 8 -16q0 -30 -24 -91q12 -26 55 -26q54 0 100 24q44 136 68 136q8 0 8 -23q0 -39 -20 -88q63 -27 90 -27q16 0 16 9q0 16 -16 77l35 74q24 -74 24 -106q0 -138 -90 -138q-47 0 -98 39
q-33 -53 -121 -53q-98 0 -98 53q-37 -28 -131 -49q-100 -22 -248 -22q-199 0 -293 57q-118 72 -123 258l-45 -66q-35 -51 -53 -53q24 -45 24 -84q0 -53 -32 -86q-16 -16 -43 -16q-39 0 -125 47q-27 -64 -86 -96q-16 -8 -49 -8q-31 -1 -44 -7l-22 -8q-12 0 -12 10q0 13 49 31
q28 11 50 23q5 3 15.5 8.5t14.5 7.5l69 53q-20 36 -20 82q0 44 37 84q37 43 69 43q8 0 13 -4q37 -20 59 -20q36 0 74 47l47 86q-79 24 -113 55q-59 51 -80 174h-4q-60 -102 -162 -102q-41 0 -79 16q-33 12 -33 25q0 51 88 118q86 65 174 91l-4 34l41 68q8 -114 19 -182
q13 -77 26 -107q26 -65 113 -92l-27 270l39 88l35 -368q108 -12 194 -12q216 0 363 81q24 78 39 78q8 0 8 -18q0 -14 -8 -51q74 -72 120 -72q56 0 86 88l-26 330h-10q-143 0 -170 151h-4q-6 -24 -16 -52t-13 -34q-22 -51 -55 -61l4 -4q20 2 28 2q115 0 115 -82
q0 -59 -51 -94q-172 -121 -328 -121q-93 0 -151 47t-58 135q0 64 33 137q-57 17 -78 88h-4q-33 -104 -113 -104q-96 0 -96 141v17l-55 -50q-15 -14 -80 -14q-100 0 -100 37q0 21 26 63q29 46 51 56l156 76v20l35 74l8 -246q5 -86 66 -86q32 0 59 20q30 23 35 48l-33 233
l37 80l57 -330q18 -43 68 -43q47 0 47 27q0 40 -33 151l-20 66q-14 44 -21 67l27 68q82 -255 82 -321q0 -42 -21 -91q-22 -57 -51 -57q-11 0 -18 6q-15 -45 -15 -80q0 -153 187 -153q147 0 291 98q4 4 4 6q0 10 -78 25l-125 20q-8 6 -8 17q0 21 35 65q123 51 131 109
q2 8 2 12v16q0 94 -11 217q-13 140 -30 256l34 115q50 -434 78 -524q38 -117 148 -135l-10 196l43 92l16 -286q32 12 59 28q34 20 64 45l61 -43q39 -24 80 -30q26 26 55 51t78 61q105 78 144 78q38 0 84 -28q53 -30 53 -68zM2064 4q0 -100 -79 -221q-86 -131 -183 -131
q-45 0 -121 33q-75 29 -75 47q0 8 10 8q12 0 55 -14q46 -17 72 -17h4q136 0 283 217l-15 45q-39 -53 -76 -53q-15 0 -26 7q-12 8 -23 20q-10 12 -16 26q-8 24 -8 37q0 45 30 105q34 63 58 63q26 0 65 -49q45 -55 45 -123zM1552 1079q0 -23 54 -51l-19 -49q-67 22 -67 82
q0 61 53 90q128 75 238 127q115 54 194 82l-18 -51q-61 -21 -238 -105q-197 -96 -197 -125zM975 915q-6 -137 -27 -149l-51 496l45 116zM1233 76l-53 -64l-99 72l-57 -74l-102 74l59 72l96 -72l56 68zM2025 860q0 16 -36 33q-33 18 -54 18q-46 0 -123 -49q-63 -39 -96 -69
q10 0 17 -1t24 -1q46 0 83 4q41 4 85 12q100 18 100 53zM1294 -248q0 -50 -4 -61q-12 -27 -51 -27q-18 0 -29 8q-29 -32 -61 -32q-14 0 -35 18q-16 16 -24 16q-17 0 -76 -34q-59 -37 -144 -37q-90 0 -90 16q0 14 66 14q44 0 60 1q23 1 34 3q27 6 72 33q62 39 82 39
q17 0 39 -16q23 -17 26 -17q31 0 37 35q4 27 23 27q8 0 8 -12v-9q0 -4 -2 -10q6 -8 22 -12q25 0 25 24q0 33 22 33zM1669 1444l-12 -45l-400 -197l9 51zM166 432q0 -20 63 -20q71 0 121 49l-4 78q-180 -72 -180 -107zM664 1362q0 -66 -43 -66q-24 0 -43 17q-39 -31 -62 -31
q-43 0 -43 55q0 41 6 56l13 12v-14q0 -62 34 -62q22 0 39 33l-4 47l19 29l8 -62q4 -33 31 -33t22 31l-6 45l14 21q15 -39 15 -78zM233 911q0 -20 52 -20q57 0 104 27l-2 79q-23 -12 -41 -18q-5 -2 -20 -7.5t-23 -8.5q-30 -14 -52 -29q-18 -12 -18 -23zM320 20q-29 0 -29 -24
q0 -26 53 -55q51 -31 80 -31q14 0 14 12q-8 41 -49 70q-37 28 -69 28zM1974 -2q27 0 31 22q-12 66 -53 66q-30 0 -41 -51q7 -37 63 -37z" />
    <glyph glyph-name="uniFE82" unicode="&#x622;" horiz-adv-x="540" arabic-form="final" 
d="M143 1815q30 0 65 -10q42 -12 62 -19q31 -11 63 -20q31 -9 62 -9q86 0 86 64h66q0 -73 -41 -116q-40 -42 -100 -42q-34 0 -65 9q-33 10 -62 21q-14 6 -62 20q-30 9 -63 9q-86 0 -86 -65h-66q0 73 41 116q41 42 100 42zM541 211q17 0 29 -4q14 -5 14 -25v-159
q0 -23 -43 -23h-418v1464h233v-1253h185z" />
    <glyph glyph-name="uniFE84" unicode="&#x623;" horiz-adv-x="540" arabic-form="final" 
d="M88 1690h70v8q-15 16 -24 41q-9 24 -9 47q0 71 43 110t121 39q61 0 107 -33q49 -35 53 -112h-93q-1 28 -20 48q-18 20 -47 20q-28 0 -47 -22t-19 -60q0 -39 21 -63q20 -23 57 -23h152v-84h-365v84zM541 211q17 0 29 -4q14 -5 14 -25v-159q0 -23 -43 -23h-418v1464h233
v-1253h185z" />
    <glyph glyph-name="uniFE86" unicode="&#x624;" horiz-adv-x="1300" arabic-form="final" 
d="M104 1366h70v8q-13 14 -23 41t-10 47q0 72 43 111q44 39 121 39q61 0 108 -34q48 -34 52 -112h-92q-1 27 -21 48q-18 20 -47 20q-28 0 -47 -22q-18 -21 -18 -60t20 -62q21 -24 57 -24h152v-84h-365v84zM436 -487q-47 0 -78 4q-40 5 -59 10q-14 4 -51 16v203
q74 -33 158 -33q74 0 141 13q60 12 107 45q48 34 77 88q32 59 49 141h-211q-109 0 -196 34q-89 35 -153 97q-64 63 -99 152q-35 90 -35 196q0 103 24 198q25 100 78 168q57 74 149 117q94 44 232 44q139 0 232 -41q91 -41 147 -120q56 -80 78 -193q23 -117 23 -259
q0 -86 -7 -182h258q18 0 30 -4q13 -4 13 -25v-159q0 -23 -43 -23h-278q-22 -134 -68 -227q-46 -94 -115 -151q-71 -58 -171 -84q-99 -25 -232 -25zM330 479q0 -128 53 -198t186 -70h236q6 85 6 192q0 100 -10 170q-11 75 -37 123q-27 50 -72 75q-46 26 -114 26
q-69 0 -117 -28q-46 -27 -77 -73q-30 -45 -42 -102t-12 -115z" />
    <glyph glyph-name="uniFE88" unicode="&#x625;" horiz-adv-x="540" arabic-form="final" 
d="M98 -444h70v8q-15 16 -24 41q-9 24 -9 47q0 71 43 110q44 39 121 39q62 0 108 -33q48 -34 52 -112h-92q-1 27 -21 48q-18 20 -47 20q-28 0 -47 -22t-19 -60q0 -39 21 -63q20 -23 57 -23h152v-84h-365v84zM541 211q17 0 29 -4q14 -5 14 -25v-159q0 -23 -43 -23h-418v1464
h233v-1253h185z" />
    <glyph glyph-name="uniFE8A" unicode="&#x626;" horiz-adv-x="1552" arabic-form="final" 
d="M63 631h70v8q-13 14 -23 41t-10 47q0 72 43 111q44 39 121 39q61 0 108 -34q48 -34 52 -112h-92q-1 27 -21 48q-18 20 -47 20q-28 0 -47 -22q-18 -21 -18 -60q0 -40 20 -63t57 -23h152v-84h-365v84zM821 -569q-213 0 -357 57q-146 58 -234 161q-89 105 -128 250
q-40 149 -41 324h211q2 -158 39 -269q38 -112 108 -182q71 -71 172 -105t234 -34q95 0 184 14q82 13 147 44q61 29 98 80q36 50 36 120q0 13 -6 31t-18 36t-30 30t-38 12q-25 0 -52 4q-28 4 -64 12q-30 7 -68 23t-64 33v202q20 -13 67 -26q53 -15 89 -21q46 -7 92 -12
q40 -4 76 -4h278q18 0 30 -4q13 -4 13 -25v-159q0 -23 -43 -23h-143q28 -30 47 -81q19 -52 19 -91q0 -78 -42 -150t-124 -127q-81 -55 -204 -88q-118 -32 -284 -32z" />
    <glyph glyph-name="uniFE8B" unicode="&#x626;" horiz-adv-x="755" arabic-form="initial" 
d="M268 1112h70v8q-15 16 -24 41q-9 24 -9 47q0 72 43 111q44 39 121 39q61 0 108 -34q48 -34 52 -112h-92q-1 28 -21 49q-18 19 -47 19q-28 0 -47 -22t-19 -60t21 -62t57 -24h152v-84h-365v84zM379 211v661h233v-872h-612q-43 0 -43 23v159q0 21 13 25q12 4 30 4h379z" />
    <glyph glyph-name="uniFE8C" unicode="&#x626;" horiz-adv-x="972" arabic-form="medial" 
d="M336 1182h70v8q-15 16 -24 41q-9 24 -9 47q0 72 43 111q42 38 121 38q61 0 107 -33q48 -34 52 -112h-92q-1 28 -20 48q-18 20 -47 20t-48 -22q-18 -21 -18 -60t21 -63q20 -23 57 -23h151v-84h-364v84zM885 0q-48 0 -86 17q-43 19 -76 45q-34 26 -60 62q-28 37 -38 66
q-51 -96 -147 -144q-92 -46 -183 -46h-295q-43 0 -43 23v159q0 21 13 25q12 4 30 4h297q23 0 45 7q25 8 46 26q20 17 36 49q14 28 14 78v501h234v-430q0 -55 20 -96q21 -43 52 -73q31 -29 69 -46q36 -16 72 -16h88q17 0 29 -4q14 -5 14 -25v-159q0 -23 -43 -23h-88z" />
    <glyph glyph-name="uniFE8E" unicode="&#x627;" horiz-adv-x="540" arabic-form="final" 
d="M541 211q17 0 29 -4q14 -5 14 -25v-159q0 -23 -43 -23h-418v1464h233v-1253h185z" />
    <glyph glyph-name="uniFE90" unicode="&#x628;" horiz-adv-x="2162" arabic-form="final" 
d="M918 -195h233v-239h-233v239zM530 0q-84 0 -170 25q-83 24 -145 80q-64 58 -101 147q-38 91 -38 221v137h213v-139q0 -260 241 -260h977q23 0 45 7q25 8 46 26q20 17 36 49q15 30 15 78v501h233v-430q0 -52 21 -96q21 -43 52 -73t68 -46q36 -16 72 -16h68q17 0 29 -4
q14 -5 14 -25v-159q0 -23 -43 -23h-68q-48 0 -86 17q-43 19 -76 45q-34 26 -60 62q-28 37 -38 66q-53 -98 -146 -144q-92 -46 -184 -46h-975z" />
    <glyph glyph-name="uniFE91" unicode="&#x628;" horiz-adv-x="737" arabic-form="initial" 
d="M381 -195h233v-239h-233v239zM379 211v661h233v-872h-612q-43 0 -43 23v159q0 21 13 25q12 4 30 4h379z" />
    <glyph glyph-name="uniFE92" unicode="&#x628;" horiz-adv-x="972" arabic-form="medial" 
d="M442 -195h234v-239h-234v239zM885 0q-48 0 -86 17q-43 19 -76 45q-34 26 -60 62q-28 37 -38 66q-51 -96 -147 -144q-92 -46 -183 -46h-295q-43 0 -43 23v159q0 21 13 25q12 4 30 4h297q23 0 45 7q25 8 46 26q20 17 36 49q14 28 14 78v501h234v-430q0 -55 20 -96
q21 -43 52 -73q31 -29 69 -46q36 -16 72 -16h88q17 0 29 -4q14 -5 14 -25v-159q0 -23 -43 -23h-88z" />
    <glyph glyph-name="uniFE94" unicode="&#x629;" horiz-adv-x="1236" arabic-form="final" 
d="M289 1464h233v-239h-233v239zM635 1464h233v-239h-233v239zM1180 0q-68 0 -119 19t-95 52t-71 74q-30 45 -47 93q-47 -66 -125 -116q-79 -50 -180 -50q-78 0 -159 24q-80 24 -147 77q-69 55 -109 134q-42 82 -42 197q0 96 29 183q28 85 86 149q57 63 145 99q89 36 205 36
h463v-547q0 -119 44 -166t122 -47h57q18 0 30 -4q13 -4 13 -25v-159q0 -23 -43 -23h-57zM543 274q99 0 168 60t69 180v252h-229q-96 0 -163 -70q-66 -69 -66 -192q0 -121 63 -175q64 -55 158 -55z" />
    <glyph glyph-name="uniFE96" unicode="&#x62a;" horiz-adv-x="2162" arabic-form="final" 
d="M664 1284h233v-240h-233v240zM1010 1284h233v-240h-233v240zM530 0q-84 0 -170 25q-83 24 -145 80q-64 58 -101 147q-38 91 -38 221v137h213v-139q0 -260 241 -260h977q23 0 45 7q25 8 46 26q20 17 36 49q15 30 15 78v501h233v-430q0 -52 21 -96q21 -43 52 -73t68 -46
q36 -16 72 -16h68q17 0 29 -4q14 -5 14 -25v-159q0 -23 -43 -23h-68q-48 0 -86 17q-43 19 -76 45q-34 26 -60 62q-28 37 -38 66q-53 -98 -146 -144q-92 -46 -184 -46h-975z" />
    <glyph glyph-name="uniFE97" unicode="&#x62a;" horiz-adv-x="757" arabic-form="initial" 
d="M63 1464h234v-239h-234v239zM410 1464h233v-239h-233v239zM379 211v661h233v-872h-612q-43 0 -43 23v159q0 21 13 25q12 4 30 4h379z" />
    <glyph glyph-name="uniFE98" unicode="&#x62a;" horiz-adv-x="972" arabic-form="medial" 
d="M260 1464h234v-239h-234v239zM606 1464h234v-239h-234v239zM885 0q-48 0 -86 17q-43 19 -76 45q-34 26 -60 62q-28 37 -38 66q-51 -96 -147 -144q-92 -46 -183 -46h-295q-43 0 -43 23v159q0 21 13 25q12 4 30 4h297q23 0 45 7q25 8 46 26q20 17 36 49q14 28 14 78v501
h234v-430q0 -55 20 -96q21 -43 52 -73q31 -29 69 -46q36 -16 72 -16h88q17 0 29 -4q14 -5 14 -25v-159q0 -23 -43 -23h-88z" />
    <glyph glyph-name="uniFE9A" unicode="&#x62b;" horiz-adv-x="2162" arabic-form="final" 
d="M856 1599h234v-239h-234v239zM682 1284h233v-240h-233v240zM1028 1284h234v-240h-234v240zM530 0q-84 0 -170 25q-83 24 -145 80q-64 58 -101 147q-38 91 -38 221v137h213v-139q0 -260 241 -260h977q23 0 45 7q25 8 46 26q20 17 36 49q15 30 15 78v501h233v-430
q0 -52 21 -96q21 -43 52 -73t68 -46q36 -16 72 -16h68q17 0 29 -4q14 -5 14 -25v-159q0 -23 -43 -23h-68q-48 0 -86 17q-43 19 -76 45q-34 26 -60 62q-28 37 -38 66q-53 -98 -146 -144q-92 -46 -184 -46h-975z" />
    <glyph glyph-name="uniFE9B" unicode="&#x62b;" horiz-adv-x="759" arabic-form="initial" 
d="M240 1780h233v-240h-233v240zM66 1464h233v-239h-233v239zM412 1464h233v-239h-233v239zM379 211v661h233v-872h-612q-43 0 -43 23v159q0 21 13 25q12 4 30 4h379z" />
    <glyph glyph-name="uniFE9C" unicode="&#x62b;" horiz-adv-x="972" arabic-form="medial" 
d="M453 1780h233v-240h-233v240zM279 1464h233v-239h-233v239zM625 1464h233v-239h-233v239zM885 0q-48 0 -86 17q-43 19 -76 45q-34 26 -60 62q-28 37 -38 66q-51 -96 -147 -144q-92 -46 -183 -46h-295q-43 0 -43 23v159q0 21 13 25q12 4 30 4h297q23 0 45 7q25 8 46 26
q20 17 36 49q14 28 14 78v501h234v-430q0 -55 20 -96q21 -43 52 -73q31 -29 69 -46q36 -16 72 -16h88q17 0 29 -4q14 -5 14 -25v-159q0 -23 -43 -23h-88z" />
    <glyph glyph-name="uniFE9E" unicode="&#x62c;" horiz-adv-x="1583" arabic-form="final" 
d="M647 -135h211v-215h-211v215zM1036 211v244q0 175 -84 260q-84 86 -239 86q-121 0 -198 -71q-76 -70 -97 -177h-228q6 99 51 186q43 84 114 144q69 59 163 91q93 32 195 32q138 0 242 -40q108 -42 179 -114t109 -179q37 -104 37 -237v-37q0 -57 17 -92q18 -37 46 -58
q31 -23 69 -30q43 -8 87 -8h84q18 0 30 -4q13 -4 13 -25v-159q0 -23 -43 -23h-86q-29 0 -60 9t-62 26q-30 16 -52 40q-23 25 -35 54h-8q-5 -25 -16 -58q-12 -36 -41 -71h-664q-62 0 -109 -17q-49 -18 -88 -49q-34 -28 -57 -71q-20 -39 -20 -88q0 -73 19 -131q18 -55 67 -131
h-224q-42 53 -68 116q-28 68 -28 152q0 83 32 162q31 76 93 137q60 58 153 95q91 36 208 36h499z" />
    <glyph glyph-name="uniFE9F" unicode="&#x62c;" horiz-adv-x="1503" arabic-form="initial" 
d="M563 -195h234v-239h-234v239zM717 801q-55 0 -115 -19q-58 -18 -105 -52q-48 -34 -82 -79q-33 -43 -44 -98h-228q6 100 58 186q51 83 131 144q78 59 180 91t205 32q135 0 242 -40q108 -40 186 -114t125 -179q46 -104 63 -237q18 -135 23 -181q8 -70 15 -113
q11 -65 13 -74q5 -25 17 -68h-1401q-43 0 -43 23v159q0 21 13 25q12 4 30 4h1135q-4 10 -12 38q-7 23 -13 59q-6 34 -12 72q-8 50 -11 75q-10 88 -43 152q-34 67 -81 108q-48 42 -113 64q-66 22 -133 22z" />
    <glyph glyph-name="uniFEA0" unicode="&#x62c;" horiz-adv-x="1611" arabic-form="medial" 
d="M586 -195h233v-239h-233v239zM1085 211v244q0 86 -31 151t-84 109q-50 42 -120 65q-69 23 -141 23q-63 0 -126 -22q-62 -22 -109 -57q-48 -36 -81 -81q-32 -44 -43 -92h-225q8 97 57 179q51 85 128 143q83 62 182 96q103 35 217 35q125 0 239 -41q110 -40 198 -115
q84 -72 134 -178q49 -104 49 -234v-49q0 -53 18 -87q17 -33 47 -54t69 -28q38 -7 85 -7h64q17 0 29 -4q14 -5 14 -25v-159q0 -23 -43 -23h-66q-28 0 -60 9q-31 9 -62 26q-30 16 -52 40q-23 25 -35 54h-8q-5 -25 -16 -58q-12 -36 -41 -71h-1272q-43 0 -43 23v159q0 21 13 25
q12 4 30 4h1085z" />
    <glyph glyph-name="uniFEA2" unicode="&#x62d;" horiz-adv-x="1583" arabic-form="final" 
d="M1036 211v244q0 175 -84 260q-84 86 -239 86q-121 0 -198 -71q-76 -70 -97 -177h-228q6 99 51 186q43 84 114 144q69 59 163 91q93 32 195 32q138 0 242 -40q108 -42 179 -114t109 -179q37 -104 37 -237v-37q0 -57 17 -92q18 -37 46 -58q31 -23 69 -30q43 -8 87 -8h84
q18 0 30 -4q13 -4 13 -25v-159q0 -23 -43 -23h-86q-29 0 -60 9t-62 26q-30 16 -52 40q-23 25 -35 54h-8q-5 -25 -16 -58q-12 -36 -41 -71h-664q-62 0 -109 -17q-49 -18 -88 -49q-34 -28 -57 -71q-20 -39 -20 -88q0 -73 19 -131q18 -55 67 -131h-224q-42 53 -68 116
q-28 68 -28 152q0 83 32 162q31 76 93 137q60 58 153 95q91 36 208 36h499z" />
    <glyph glyph-name="uniFEA3" unicode="&#x62d;" horiz-adv-x="1503" arabic-form="initial" 
d="M717 801q-55 0 -115 -19q-58 -18 -105 -52q-48 -34 -82 -79q-33 -43 -44 -98h-228q6 100 58 186q51 83 131 144q78 59 180 91t205 32q135 0 242 -40q108 -40 186 -114t125 -179q46 -104 63 -237q18 -135 23 -181q8 -70 15 -113q11 -65 13 -74q5 -25 17 -68h-1401
q-43 0 -43 23v159q0 21 13 25q12 4 30 4h1135q-4 10 -12 38q-7 23 -13 59q-6 34 -12 72q-8 50 -11 75q-10 88 -43 152q-34 67 -81 108q-48 42 -113 64q-66 22 -133 22z" />
    <glyph glyph-name="uniFEA4" unicode="&#x62d;" horiz-adv-x="1611" arabic-form="medial" 
d="M1085 211v244q0 86 -31 151t-84 109q-50 42 -120 65q-69 23 -141 23q-63 0 -126 -22q-62 -22 -109 -57q-48 -36 -81 -81q-32 -44 -43 -92h-225q8 97 57 179q51 85 128 143q83 62 182 96q103 35 217 35q125 0 239 -41q110 -40 198 -115q84 -72 134 -178q49 -104 49 -234
v-49q0 -53 18 -87q17 -33 47 -54t69 -28q38 -7 85 -7h64q17 0 29 -4q14 -5 14 -25v-159q0 -23 -43 -23h-66q-28 0 -60 9q-31 9 -62 26q-30 16 -52 40q-23 25 -35 54h-8q-5 -25 -16 -58q-12 -36 -41 -71h-1272q-43 0 -43 23v159q0 21 13 25q12 4 30 4h1085z" />
    <glyph glyph-name="uniFEA6" unicode="&#x62e;" horiz-adv-x="1583" arabic-form="final" 
d="M649 1419h234v-239h-234v239zM1036 211v244q0 175 -84 260q-84 86 -239 86q-121 0 -198 -71q-76 -70 -97 -177h-228q6 99 51 186q43 84 114 144q69 59 163 91q93 32 195 32q138 0 242 -40q108 -42 179 -114t109 -179q37 -104 37 -237v-37q0 -57 17 -92q18 -37 46 -58
q31 -23 69 -30q43 -8 87 -8h84q18 0 30 -4q13 -4 13 -25v-159q0 -23 -43 -23h-86q-29 0 -60 9t-62 26q-30 16 -52 40q-23 25 -35 54h-8q-5 -25 -16 -58q-12 -36 -41 -71h-664q-62 0 -109 -17q-49 -18 -88 -49q-34 -28 -57 -71q-20 -39 -20 -88q0 -73 19 -131q18 -55 67 -131
h-224q-42 53 -68 116q-28 68 -28 152q0 83 32 162q31 76 93 137q60 58 153 95q91 36 208 36h499z" />
    <glyph glyph-name="uniFEA7" unicode="&#x62e;" horiz-adv-x="1503" arabic-form="initial" 
d="M618 1464h234v-239h-234v239zM717 801q-55 0 -115 -19q-58 -18 -105 -52q-48 -34 -82 -79q-33 -43 -44 -98h-228q6 100 58 186q51 83 131 144q78 59 180 91t205 32q135 0 242 -40q108 -40 186 -114t125 -179q46 -104 63 -237q18 -135 23 -181q8 -70 15 -113
q11 -65 13 -74q5 -25 17 -68h-1401q-43 0 -43 23v159q0 21 13 25q12 4 30 4h1135q-4 10 -12 38q-7 23 -13 59q-6 34 -12 72q-8 50 -11 75q-10 88 -43 152q-34 67 -81 108q-48 42 -113 64q-66 22 -133 22z" />
    <glyph glyph-name="uniFEA8" unicode="&#x62e;" horiz-adv-x="1611" arabic-form="medial" 
d="M616 1466h234v-239h-234v239zM1085 211v244q0 86 -31 151t-84 109q-50 42 -120 65q-69 23 -141 23q-63 0 -126 -22q-62 -22 -109 -57q-48 -36 -81 -81q-32 -44 -43 -92h-225q8 97 57 179q51 85 128 143q83 62 182 96q103 35 217 35q125 0 239 -41q110 -40 198 -115
q84 -72 134 -178q49 -104 49 -234v-49q0 -53 18 -87q17 -33 47 -54t69 -28q38 -7 85 -7h64q17 0 29 -4q14 -5 14 -25v-159q0 -23 -43 -23h-66q-28 0 -60 9q-31 9 -62 26q-30 16 -52 40q-23 25 -35 54h-8q-5 -25 -16 -58q-12 -36 -41 -71h-1272q-43 0 -43 23v159q0 21 13 25
q12 4 30 4h1085z" />
    <glyph glyph-name="uniFEAA" unicode="&#x62f;" horiz-adv-x="1175" arabic-form="final" 
d="M1176 211q17 0 29 -4q14 -5 14 -25v-159q0 -23 -43 -23h-66q-28 0 -60 9q-31 9 -62 26q-30 16 -52 40q-23 25 -35 54h-8q-5 -25 -16 -58q-12 -36 -41 -71h-760v211h583v215q0 76 -17 136q-18 65 -56 108q-38 44 -99 70t-143 26h-176v205h176q110 0 212 -31
q97 -29 174 -97q76 -67 119 -171q44 -106 44 -252v-33q4 -105 65 -140q62 -36 154 -36h64z" />
    <glyph glyph-name="uniFEAC" unicode="&#x630;" horiz-adv-x="1175" arabic-form="final" 
d="M221 1464h234v-239h-234v239zM1176 211q17 0 29 -4q14 -5 14 -25v-159q0 -23 -43 -23h-66q-28 0 -60 9q-31 9 -62 26q-30 16 -52 40q-23 25 -35 54h-8q-5 -25 -16 -58q-12 -36 -41 -71h-760v211h583v215q0 76 -17 136q-18 65 -56 108q-38 44 -99 70t-143 26h-176v205h176
q110 0 212 -31q97 -29 174 -97q76 -67 119 -171q44 -106 44 -252v-33q4 -105 65 -140q62 -36 154 -36h64z" />
    <glyph glyph-name="uniFEAE" unicode="&#x631;" horiz-adv-x="847" arabic-form="final" 
d="M557 -8q0 -232 -81 -356q-80 -123 -273 -123q-39 0 -76 5q-27 4 -55 13q-25 7 -47 18v197q64 -35 153 -35q36 0 62 10q27 11 45 40q17 29 28 85q11 58 11 146v880h233v-485q0 -54 17 -87q17 -32 48 -54q30 -21 69 -28q38 -7 85 -7h72q18 0 30 -4q13 -4 13 -25v-159
q0 -23 -43 -23h-74q-28 0 -60 9q-31 9 -62 26q-30 16 -52 40q-23 25 -35 54h-8v-137z" />
    <glyph glyph-name="uniFEB0" unicode="&#x632;" horiz-adv-x="847" arabic-form="final" 
d="M344 1464h234v-239h-234v239zM557 -8q0 -232 -81 -356q-80 -123 -273 -123q-39 0 -76 5q-27 4 -55 13q-25 7 -47 18v197q64 -35 153 -35q36 0 62 10q27 11 45 40q17 29 28 85q11 58 11 146v880h233v-485q0 -54 17 -87q17 -32 48 -54q30 -21 69 -28q38 -7 85 -7h72
q18 0 30 -4q13 -4 13 -25v-159q0 -23 -43 -23h-74q-28 0 -60 9q-31 9 -62 26q-30 16 -52 40q-23 25 -35 54h-8v-137z" />
    <glyph glyph-name="uniFEB2" unicode="&#x633;" horiz-adv-x="3096" arabic-form="final" 
d="M1778 203q38 0 69 7q33 8 58 26q25 19 40 49t15 77v467h233v-469q0 -88 59 -123q58 -34 148 -34q80 0 136 34q57 35 57 125v510h233v-501q0 -48 15 -78q17 -33 35 -49q21 -18 46 -26q22 -7 48 -7h127q17 0 29 -4q14 -5 14 -25v-159q0 -23 -43 -23h-127q-26 0 -54 6
t-55 21q-29 16 -49 36q-22 22 -33 54h-8q-41 -62 -116 -92q-77 -31 -199 -31q-126 0 -205 30q-81 31 -105 91h-8q-39 -61 -109 -91q-71 -30 -192 -30q-96 0 -165 20q-71 21 -109 66h-9q-29 -117 -85 -218q-57 -103 -148 -181t-221 -123q-129 -45 -303 -45q-177 0 -313 51
t-230 158q-93 106 -143 275q-50 168 -50 398v135h228v-135q0 -193 30 -324q29 -127 93 -208q62 -78 156 -111t225 -33q129 0 232 39q104 39 177 121q74 83 113 210t39 306v391h233v-424q0 -45 16 -77q16 -31 41 -49q27 -19 60 -26q32 -7 74 -7z" />
    <glyph glyph-name="uniFEB3" unicode="&#x633;" horiz-adv-x="1875" arabic-form="initial" 
d="M137 211q23 0 45 7q25 8 46 26q20 17 36 49q15 30 15 78v420h233v-437q0 -42 15 -71q14 -27 41 -46q24 -17 61 -25q32 -7 73 -7q39 0 70 7q32 7 57 26t40 49q16 32 16 78v464h233v-458q0 -48 15 -78q17 -33 35 -49q21 -18 46 -26q22 -7 46 -7h260v661h233v-872h-491
q-26 0 -54 6t-55 21q-28 16 -49 35q-21 20 -33 53h-8q-38 -60 -112 -91q-72 -30 -189 -30q-102 0 -184 28q-81 27 -109 87h-8q-61 -109 -215 -109h-246q-43 0 -43 23v159q0 21 13 25q12 4 30 4h137z" />
    <glyph glyph-name="uniFEB4" unicode="&#x633;" horiz-adv-x="2021" arabic-form="medial" 
d="M702 203q39 0 70 7q32 7 57 26t40 49q16 32 16 77v467h233v-467q0 -90 58 -125q56 -34 149 -34q80 0 136 34q57 35 57 125v510h233v-503q0 -48 14 -76q16 -32 36 -49q21 -18 46 -26q22 -7 47 -7h127q18 0 30 -4q13 -4 13 -25v-159q0 -23 -43 -23h-127q-24 0 -53 6
q-28 6 -55 21q-29 16 -49 36q-22 22 -33 54h-8q-41 -62 -116 -92q-78 -31 -200 -31q-124 0 -202 30q-79 31 -103 91h-8q-38 -60 -112 -91q-72 -30 -193 -30q-101 0 -183 28q-79 27 -108 87h-8q-64 -109 -217 -109h-246q-43 0 -43 23v159q0 21 13 25q12 4 30 4h137q23 0 45 7
q25 8 46 26q20 17 36 49q15 30 15 78v420h233v-429q0 -47 15 -77q15 -31 41 -49t61 -26q32 -7 73 -7z" />
    <glyph glyph-name="uniFEB6" unicode="&#x634;" horiz-adv-x="3096" arabic-form="final" 
d="M1964 1780h234v-240h-234v240zM1790 1464h233v-239h-233v239zM2136 1464h234v-239h-234v239zM1778 203q38 0 69 7q33 8 58 26q25 19 40 49t15 77v467h233v-469q0 -88 59 -123q58 -34 148 -34q80 0 136 34q57 35 57 125v510h233v-501q0 -48 15 -78q17 -33 35 -49
q21 -18 46 -26q22 -7 48 -7h127q17 0 29 -4q14 -5 14 -25v-159q0 -23 -43 -23h-127q-26 0 -54 6t-55 21q-29 16 -49 36q-22 22 -33 54h-8q-41 -62 -116 -92q-77 -31 -199 -31q-126 0 -205 30q-81 31 -105 91h-8q-39 -61 -109 -91q-71 -30 -192 -30q-96 0 -165 20
q-71 21 -109 66h-9q-29 -117 -85 -218q-57 -103 -148 -181t-221 -123q-129 -45 -303 -45q-177 0 -313 51t-230 158q-93 106 -143 275q-50 168 -50 398v135h228v-135q0 -193 30 -324q29 -127 93 -208q62 -78 156 -111t225 -33q129 0 232 39q104 39 177 121q74 83 113 210
t39 306v391h233v-424q0 -45 16 -77q16 -31 41 -49q27 -19 60 -26q32 -7 74 -7z" />
    <glyph glyph-name="uniFEB7" unicode="&#x634;" horiz-adv-x="1875" arabic-form="initial" 
d="M891 1780h233v-240h-233v240zM717 1464h233v-239h-233v239zM1063 1464h233v-239h-233v239zM137 211q23 0 45 7q25 8 46 26q20 17 36 49q15 30 15 78v420h233v-437q0 -42 15 -71q14 -27 41 -46q24 -17 61 -25q32 -7 73 -7q39 0 70 7q32 7 57 26t40 49q16 32 16 78v464h233
v-458q0 -48 15 -78q17 -33 35 -49q21 -18 46 -26q22 -7 46 -7h260v661h233v-872h-491q-26 0 -54 6t-55 21q-28 16 -49 35q-21 20 -33 53h-8q-38 -60 -112 -91q-72 -30 -189 -30q-102 0 -184 28q-81 27 -109 87h-8q-61 -109 -215 -109h-246q-43 0 -43 23v159q0 21 13 25
q12 4 30 4h137z" />
    <glyph glyph-name="uniFEB8" unicode="&#x634;" horiz-adv-x="2021" arabic-form="medial" 
d="M881 1780h233v-240h-233v240zM707 1464h233v-239h-233v239zM1053 1464h233v-239h-233v239zM702 203q39 0 70 7q32 7 57 26t40 49q16 32 16 77v467h233v-467q0 -90 58 -125q56 -34 149 -34q80 0 136 34q57 35 57 125v510h233v-503q0 -48 14 -76q16 -32 36 -49
q21 -18 46 -26q22 -7 47 -7h127q18 0 30 -4q13 -4 13 -25v-159q0 -23 -43 -23h-127q-24 0 -53 6q-28 6 -55 21q-29 16 -49 36q-22 22 -33 54h-8q-41 -62 -116 -92q-78 -31 -200 -31q-124 0 -202 30q-79 31 -103 91h-8q-38 -60 -112 -91q-72 -30 -193 -30q-101 0 -183 28
q-79 27 -108 87h-8q-64 -109 -217 -109h-246q-43 0 -43 23v159q0 21 13 25q12 4 30 4h137q23 0 45 7q25 8 46 26q20 17 36 49q15 30 15 78v420h233v-429q0 -47 15 -77q15 -31 41 -49t61 -26q32 -7 73 -7z" />
    <glyph glyph-name="uniFEBA" unicode="&#x635;" horiz-adv-x="3192" arabic-form="final" 
d="M797 -487q-177 0 -313 51t-230 158q-93 106 -143 275q-50 168 -50 398v135h228v-135q0 -193 30 -324q29 -127 93 -208q62 -78 156 -111t225 -33q129 0 232 39q104 39 177 121q74 83 113 210t39 306v422h233v-360h12q65 83 155 178q92 97 183 163q100 72 208 117
q112 46 229 46t216 -33q98 -33 170 -97q69 -62 110 -157q40 -93 40 -217v-58q0 -104 50 -146t126 -42h107q18 0 30 -4q13 -4 13 -25v-159q0 -23 -43 -23h-66q-29 0 -60 9t-62 26q-29 16 -53 40t-36 54h-6q-5 -25 -16 -58q-12 -36 -41 -71h-1323q-35 -102 -94 -190
q-60 -89 -149 -155q-91 -68 -211 -105t-279 -37zM2365 750q-81 0 -163 -33t-159 -84q-78 -52 -147 -115t-126 -123q-49 -52 -96 -109q-21 -26 -58 -75h1063v242q0 153 -72 225t-242 72z" />
    <glyph glyph-name="uniFEBB" unicode="&#x635;" horiz-adv-x="1894" arabic-form="initial" 
d="M1792 0h-1792q-43 0 -43 23v159q0 21 13 25q12 4 30 4h254v604h233v-342h11q67 86 153 175t182 157q101 72 204 113q107 43 223 43t215 -33q96 -32 169 -97q70 -63 109 -157t39 -217v-457zM1251 750q-81 0 -164 -33q-80 -32 -158 -84t-147 -115t-126 -123
q-49 -52 -96 -109q-21 -26 -58 -75h1059v242q0 152 -70 225q-69 72 -240 72z" />
    <glyph glyph-name="uniFEBC" unicode="&#x635;" horiz-adv-x="2078" arabic-form="medial" 
d="M2079 211q17 0 29 -4q14 -5 14 -25v-159q0 -23 -43 -23h-66q-29 0 -60 9t-62 26q-29 16 -53 40t-36 54h-6q-5 -25 -16 -58q-12 -36 -41 -71h-1739q-43 0 -43 23v159q0 21 13 25q12 4 30 4h254v604h233v-340h13q69 89 153 174q87 88 181 156q99 71 203 113q107 43 223 43
q117 0 216 -33q98 -33 170 -97q69 -62 110 -157q40 -93 40 -217v-58q0 -104 50 -146t126 -42h107zM1251 750q-81 0 -164 -33q-80 -32 -158 -84t-147 -115t-126 -123q-49 -52 -96 -109q-21 -26 -58 -75h1063v242q0 153 -72 225t-242 72z" />
    <glyph glyph-name="uniFEBE" unicode="&#x636;" horiz-adv-x="3192" arabic-form="final" 
d="M1661 1464h233v-239h-233v239zM797 -487q-177 0 -313 51t-230 158q-93 106 -143 275q-50 168 -50 398v135h228v-135q0 -193 30 -324q29 -127 93 -208q62 -78 156 -111t225 -33q129 0 232 39q104 39 177 121q74 83 113 210t39 306v422h233v-360h12q65 83 155 178
q92 97 183 163q100 72 208 117q112 46 229 46t216 -33q98 -33 170 -97q69 -62 110 -157q40 -93 40 -217v-58q0 -104 50 -146t126 -42h107q18 0 30 -4q13 -4 13 -25v-159q0 -23 -43 -23h-66q-29 0 -60 9t-62 26q-29 16 -53 40t-36 54h-6q-5 -25 -16 -58q-12 -36 -41 -71
h-1323q-35 -102 -94 -190q-60 -89 -149 -155q-91 -68 -211 -105t-279 -37zM2365 750q-81 0 -163 -33t-159 -84q-78 -52 -147 -115t-126 -123q-49 -52 -96 -109q-21 -26 -58 -75h1063v242q0 153 -72 225t-242 72z" />
    <glyph glyph-name="uniFEBF" unicode="&#x636;" horiz-adv-x="1894" arabic-form="initial" 
d="M514 1407h234v-240h-234v240zM1792 0h-1792q-43 0 -43 23v159q0 21 13 25q12 4 30 4h254v604h233v-342h11q67 86 153 175t182 157q101 72 204 113q107 43 223 43t215 -33q96 -32 169 -97q70 -63 109 -157t39 -217v-457zM1251 750q-81 0 -164 -33q-80 -32 -158 -84
t-147 -115t-126 -123q-49 -52 -96 -109q-21 -26 -58 -75h1059v242q0 152 -70 225q-69 72 -240 72z" />
    <glyph glyph-name="uniFEC0" unicode="&#x636;" horiz-adv-x="2078" arabic-form="medial" 
d="M516 1407h234v-240h-234v240zM2079 211q17 0 29 -4q14 -5 14 -25v-159q0 -23 -43 -23h-66q-29 0 -60 9t-62 26q-29 16 -53 40t-36 54h-6q-5 -25 -16 -58q-12 -36 -41 -71h-1739q-43 0 -43 23v159q0 21 13 25q12 4 30 4h254v604h233v-340h13q69 89 153 174q87 88 181 156
q99 71 203 113q107 43 223 43q117 0 216 -33q98 -33 170 -97q69 -62 110 -157q40 -93 40 -217v-58q0 -104 50 -146t126 -42h107zM1251 750q-81 0 -164 -33q-80 -32 -158 -84t-147 -115t-126 -123q-49 -52 -96 -109q-21 -26 -58 -75h1063v242q0 153 -72 225t-242 72z" />
    <glyph glyph-name="uniFEC2" unicode="&#x637;" horiz-adv-x="1996" arabic-form="final" 
d="M51 0v211h146v1253h233v-964h12q59 79 144 167q78 81 171 148q91 66 194 106q102 40 218 40q117 0 216 -33q98 -33 170 -97q71 -63 111 -157q40 -93 40 -217v-68q0 -97 51 -138q50 -40 125 -40h115q17 0 29 -4q14 -5 14 -25v-159q0 -23 -43 -23h-74q-29 0 -60 9t-62 26
q-29 16 -53 40t-36 54h-6q-5 -25 -16 -58q-12 -36 -41 -71h-1598zM1161 750q-83 0 -162 -33t-153 -84q-68 -47 -139 -115q-63 -60 -118 -123t-90 -109q-37 -49 -55 -75h1031v242q0 60 -25 118q-24 55 -67 95q-41 38 -99 61t-123 23z" />
    <glyph glyph-name="uniFEC3" unicode="&#x637;" horiz-adv-x="1777" arabic-form="initial" 
d="M1675 0h-1675q-43 0 -43 23v159q0 21 13 25q12 4 30 4h166v1253h233v-964h9q66 89 142 167q80 83 170 148q91 65 193 106q101 40 217 40q118 0 218 -33q99 -33 173 -97q73 -64 113 -157q41 -96 41 -217v-457zM1130 750q-82 0 -161 -33q-82 -34 -154 -84
q-68 -47 -139 -115q-63 -60 -118 -123t-90 -109q-26 -35 -54 -75h1030v242q0 60 -25 118q-24 56 -66 95q-40 37 -100 61q-58 23 -123 23z" />
    <glyph glyph-name="uniFEC4" unicode="&#x637;" horiz-adv-x="1966" arabic-form="medial" 
d="M1966 211q18 0 30 -4q13 -4 13 -25v-159q0 -23 -43 -23h-74q-28 0 -60 9q-31 9 -62 26q-29 16 -53 40t-36 54h-6q-5 -25 -16 -58q-12 -36 -41 -71h-1618q-43 0 -43 23v159q0 21 13 25q12 4 30 4h166v1253h233v-964h13q63 84 143 167q78 81 171 148q90 65 195 106
q102 40 218 40q117 0 216 -33q98 -33 170 -97q69 -62 110 -157q40 -93 40 -217v-68q4 -97 54 -138q49 -40 122 -40h115zM1130 750q-82 0 -161 -33q-82 -34 -154 -84q-68 -47 -139 -115q-63 -60 -118 -123t-90 -109q-26 -35 -54 -75h1030v242q0 60 -25 118q-24 56 -66 95
q-40 37 -100 61q-58 23 -123 23z" />
    <glyph glyph-name="uniFEC6" unicode="&#x638;" horiz-adv-x="1996" arabic-form="final" 
d="M788 1407h234v-240h-234v240zM51 0v211h146v1253h233v-964h12q59 79 144 167q78 81 171 148q91 66 194 106q102 40 218 40q117 0 216 -33q98 -33 170 -97q71 -63 111 -157q40 -93 40 -217v-68q0 -97 51 -138q50 -40 125 -40h115q17 0 29 -4q14 -5 14 -25v-159
q0 -23 -43 -23h-74q-29 0 -60 9t-62 26q-29 16 -53 40t-36 54h-6q-5 -25 -16 -58q-12 -36 -41 -71h-1598zM1161 750q-83 0 -162 -33t-153 -84q-68 -47 -139 -115q-63 -60 -118 -123t-90 -109q-37 -49 -55 -75h1031v242q0 60 -25 118q-24 55 -67 95q-41 38 -99 61t-123 23z
" />
    <glyph glyph-name="uniFEC7" unicode="&#x638;" horiz-adv-x="1777" arabic-form="initial" 
d="M745 1407h234v-240h-234v240zM1675 0h-1675q-43 0 -43 23v159q0 21 13 25q12 4 30 4h166v1253h233v-964h9q66 89 142 167q80 83 170 148q91 65 193 106q101 40 217 40q118 0 218 -33q99 -33 173 -97q73 -64 113 -157q41 -96 41 -217v-457zM1130 750q-82 0 -161 -33
q-82 -34 -154 -84q-68 -47 -139 -115q-63 -60 -118 -123t-90 -109q-26 -35 -54 -75h1030v242q0 60 -25 118q-24 56 -66 95q-40 37 -100 61q-58 23 -123 23z" />
    <glyph glyph-name="uniFEC8" unicode="&#x638;" horiz-adv-x="1966" arabic-form="medial" 
d="M750 1407h233v-240h-233v240zM1966 211q18 0 30 -4q13 -4 13 -25v-159q0 -23 -43 -23h-74q-28 0 -60 9q-31 9 -62 26q-29 16 -53 40t-36 54h-6q-5 -25 -16 -58q-12 -36 -41 -71h-1618q-43 0 -43 23v159q0 21 13 25q12 4 30 4h166v1253h233v-964h13q63 84 143 167
q78 81 171 148q90 65 195 106q102 40 218 40q117 0 216 -33q98 -33 170 -97q69 -62 110 -157q40 -93 40 -217v-68q4 -97 54 -138q49 -40 122 -40h115zM1130 750q-82 0 -161 -33q-82 -34 -154 -84q-68 -47 -139 -115q-63 -60 -118 -123t-90 -109q-26 -35 -54 -75h1030v242
q0 60 -25 118q-24 56 -66 95q-40 37 -100 61q-58 23 -123 23z" />
    <glyph glyph-name="uniFECA" unicode="&#x639;" horiz-adv-x="1515" arabic-form="final" 
d="M158 940h811q180 0 278 -85q99 -85 99 -284q0 -95 -42 -184q-41 -87 -145 -168v-10h82q78 0 118 1t107 1h50q17 0 29 -4q14 -5 14 -25v-159q0 -23 -43 -23h-977q-135 0 -194 -60q-58 -59 -58 -180q0 -62 23 -124q22 -60 65 -123h-228q-36 46 -65 112q-31 71 -31 135
q0 95 31 180q30 82 91 143q59 59 148 94q86 34 199 34v8q-50 50 -93 145q-47 103 -84 194q-40 96 -86 197q-44 96 -99 148v37zM809 199q63 0 115 43q54 45 93 104q37 56 63 131q24 69 24 123q0 66 -49 96q-51 31 -117 31h-451q21 -20 43 -68q19 -42 43 -106q8 -22 24 -63
t23 -59q25 -66 52 -114q29 -52 62 -85t75 -33z" />
    <glyph glyph-name="uniFECB" unicode="&#x639;" horiz-adv-x="1249" arabic-form="initial" 
d="M360 211v8q-22 22 -42 55t-39 77q-18 43 -30 88q-11 43 -11 91q0 112 34 199q34 86 99 150q62 61 151 94q88 33 195 33q103 0 182 -31q74 -29 128 -86q52 -55 82 -131q30 -77 42 -164h-217q-10 42 -30 80q-19 37 -48 64q-30 28 -64 44q-37 17 -75 17q-106 0 -172 -69
t-66 -200q0 -144 65 -232q64 -87 189 -87h428v-211h-1161q-43 0 -43 23v159q0 21 13 25q12 4 30 4h360z" />
    <glyph glyph-name="uniFECC" unicode="&#x639;" horiz-adv-x="1509" arabic-form="medial" 
d="M803 199q63 0 115 39q53 40 93 97q37 53 63 125q24 66 24 120q0 65 -45 107t-121 42h-451q22 -20 43 -69q18 -42 43 -106q8 -21 23.5 -62t22.5 -60q24 -63 53 -115t62 -85t75 -33zM498 211v8q-49 49 -91 145q-43 98 -78 194q-36 98 -80 197q-43 97 -97 148v37h811
q179 0 278 -100q98 -99 98 -269q0 -85 -50 -177q-48 -88 -136 -175v-10h82q78 0 118 1t107 1h49q18 0 30 -4q13 -4 13 -25v-159q0 -23 -43 -23h-1509q-43 0 -43 23v159q0 21 13 25q12 4 30 4h498z" />
    <glyph glyph-name="uniFECE" unicode="&#x63a;" horiz-adv-x="1515" arabic-form="final" 
d="M158 940h811q180 0 278 -85q99 -85 99 -284q0 -95 -42 -184q-41 -87 -145 -168v-10h82q78 0 118 1t107 1h50q17 0 29 -4q14 -5 14 -25v-159q0 -23 -43 -23h-977q-135 0 -194 -60q-58 -59 -58 -180q0 -62 23 -124q22 -60 65 -123h-228q-36 46 -65 112q-31 71 -31 135
q0 95 31 180q30 82 91 143q59 59 148 94q86 34 199 34v8q-50 50 -93 145q-47 103 -84 194q-40 96 -86 197q-44 96 -99 148v37zM809 199q63 0 115 43q54 45 93 104q37 56 63 131q24 69 24 123q0 66 -49 96q-51 31 -117 31h-451q21 -20 43 -68q19 -42 43 -106q8 -22 24 -63
t23 -59q25 -66 52 -114q29 -52 62 -85t75 -33zM713 1464h233v-239h-233v239z" />
    <glyph glyph-name="uniFECF" unicode="&#x63a;" horiz-adv-x="1249" arabic-form="initial" 
d="M592 1464h233v-239h-233v239zM360 211v8q-22 22 -42 55t-39 77q-18 43 -30 88q-11 43 -11 91q0 112 34 199q34 86 99 150q62 61 151 94q88 33 195 33q103 0 182 -31q74 -29 128 -86q52 -55 82 -131q30 -77 42 -164h-217q-10 42 -30 80q-19 37 -48 64q-30 28 -64 44
q-37 17 -75 17q-106 0 -172 -69t-66 -200q0 -144 65 -232q64 -87 189 -87h428v-211h-1161q-43 0 -43 23v159q0 21 13 25q12 4 30 4h360z" />
    <glyph glyph-name="uniFED0" unicode="&#x63a;" horiz-adv-x="1509" arabic-form="medial" 
d="M803 199q63 0 115 39q53 40 93 97q37 53 63 125q24 66 24 120q0 65 -45 107t-121 42h-451q22 -20 43 -69q18 -42 43 -106q8 -21 23.5 -62t22.5 -60q24 -63 53 -115t62 -85t75 -33zM498 211v8q-49 49 -91 145q-43 98 -78 194q-36 98 -80 197q-43 97 -97 148v37h811
q179 0 278 -100q98 -99 98 -269q0 -85 -50 -177q-48 -88 -136 -175v-10h82q78 0 118 1t107 1h49q18 0 30 -4q13 -4 13 -25v-159q0 -23 -43 -23h-1509q-43 0 -43 23v159q0 21 13 25q12 4 30 4h498zM680 1464h233v-239h-233v239z" />
    <glyph glyph-name="uniFED2" unicode="&#x641;" horiz-adv-x="2320" arabic-form="final" 
d="M1569 1464h233v-239h-233v239zM1677 803q-132 0 -200 -83t-68 -218q0 -134 69 -217q69 -82 199 -82q131 0 200 82t69 217t-68 218t-201 83zM530 0q-84 0 -170 25q-83 24 -145 80q-64 58 -101 147q-38 91 -38 221v137h213v-139q0 -260 241 -260h770v8q-15 9 -41 38
q-24 27 -44 67q-16 31 -33 85q-15 47 -15 93q0 122 38 216q38 93 107 158q68 64 162 97q93 33 203 33q111 0 204 -33q94 -33 162 -97q68 -63 106 -158q38 -94 38 -216q0 -50 -14 -93q-15 -48 -34 -85q-21 -43 -43 -67q-25 -28 -42 -38v-8h266q18 0 30 -4q13 -4 13 -25v-159
q0 -23 -43 -23h-1790z" />
    <glyph glyph-name="uniFED3" unicode="&#x641;" horiz-adv-x="1273" arabic-form="initial" 
d="M563 1464h234v-239h-234v239zM0 0q-43 0 -43 23v159q0 21 13 25q12 4 30 4h299v8q-17 10 -42 38q-22 24 -43 67q-19 37 -34 85q-14 43 -14 93q0 122 38 216q38 95 106 158q68 64 162 97q93 33 204 33q108 0 204 -31q90 -29 161 -94q69 -63 107 -158q38 -96 38 -221
q0 -128 -37 -221q-37 -94 -103 -157t-161 -93q-98 -31 -209 -31h-676zM676 803q-133 0 -201 -83q-67 -82 -67 -218t68 -217q69 -82 200 -82t200 82q68 81 68 217t-67 218q-68 83 -201 83z" />
    <glyph glyph-name="uniFED4" unicode="&#x641;" horiz-adv-x="1257" arabic-form="medial" 
d="M506 1464h233v-239h-233v239zM621 803q-133 0 -201 -83t-68 -218q0 -134 69 -217q69 -82 200 -82q130 0 199 82q69 83 69 217q0 135 -68 218t-200 83zM0 0q-43 0 -43 23v159q0 21 13 25q12 4 30 4h244v8q-17 10 -42 38q-22 24 -43 67q-19 37 -34 85q-14 43 -14 93
q0 124 37 216q38 93 107 158q68 64 162 97q93 33 204 33q110 0 203 -33q94 -33 162 -97q69 -65 107 -158q37 -92 37 -216q0 -50 -14 -93q-15 -48 -34 -85q-21 -43 -43 -67q-25 -28 -42 -38v-8h260q18 0 30 -4q13 -4 13 -25v-159q0 -23 -43 -23h-1257z" />
    <glyph glyph-name="uniFED6" unicode="&#x642;" horiz-adv-x="1855" arabic-form="final" 
d="M840 1464h233v-239h-233v239zM1186 1464h233v-239h-233v239zM1130 0q-110 0 -197 34q-90 35 -155 97q-64 61 -101 152q-36 88 -36 196q0 99 22 198q21 97 75 168q55 73 147 117q93 44 231 44q141 0 234 -43q92 -42 150 -123q55 -77 80 -195q24 -114 24 -260
q0 -78 -7 -174h261q17 0 29 -4q14 -5 14 -25v-159q0 -23 -43 -23h-287q-29 -141 -85 -246q-57 -106 -147 -178q-87 -70 -219 -108q-127 -37 -301 -37q-227 0 -370 59q-146 60 -231 166q-84 105 -119 252q-35 146 -36 315h222q0 -308 137 -445q136 -136 401 -136
q216 0 343 92t184 266h-220zM885 479q0 -143 59 -205q60 -63 186 -63h234v192q0 193 -51 293q-51 101 -189 101q-68 0 -115 -26t-74 -69q-27 -44 -39 -101q-11 -54 -11 -122z" />
    </font>
</defs>
</svg>
