<?xml version="1.0" standalone="no"?>
<!DOCTYPE svg PUBLIC "-//W3C//DTD SVG 1.1//EN" "http://www.w3.org/Graphics/SVG/1.1/DTD/svg11.dtd" >
<svg xmlns="http://www.w3.org/2000/svg" xmlns:xlink="http://www.w3.org/1999/xlink" version="1.1">
<metadata>
Created by FontForge 20201107 at Tue Apr 22 17:52:13 2025
 By 
Copyright (c) 2014 by Abjad / Ali Almasri. All rights reserved.
</metadata>
<defs>
<font id="Swissra-Bold" horiz-adv-x="0" >
  <font-face 
    font-family="Swissra-Bold"
    font-weight="400"
    font-stretch="normal"
    units-per-em="2048"
    panose-1="1 0 0 0 0 0 0 0 0 0"
    ascent="1356"
    descent="-692"
    bbox="-336 -1141 3260 2232"
    underline-thickness="49"
    underline-position="-124"
    unicode-range="U+000D-FEFC"
  />
<missing-glyph horiz-adv-x="1021" 
d="M1022 1432v-1432h-1022v1432h1022zM922 98v1231h-824v-1231h824zM449 467q0 2 -1.5 7.5t-1.5 7.5q-2 12 -2 18q0 26 1 40q1 16 5 43q2 14 8 42q4 16 11 37q16 33 51 70q54 56 64 68q33 39 54 68q24 34 24 76q0 34 -12 64q-13 34 -30 54q-17 21 -48 38q-25 14 -62 14
q-42 0 -70 -15q-27 -14 -48 -43q-18 -25 -31 -62q-10 -28 -15 -68l-98 14q6 61 24 110q17 48 52 87q31 36 80 57q46 20 112 20q59 0 102 -20q47 -22 77 -55q32 -35 50 -83q19 -51 19 -104q0 -50 -13 -86t-34 -66q-22 -31 -46 -54q-32 -30 -49 -45q-21 -18 -42 -43
q-20 -24 -27 -48q-4 -10 -7 -31q-2 -14 -4 -40q-1 -14 -1 -41v-31h-92zM442 233v134h113v-134h-113z" />
    <glyph glyph-name="uniFEF5" unicode="&#xfedf;&#xfe82;" horiz-adv-x="1355" arabic-form="isolated" 
d="M41 242h225v845h291v-845h385v1222h291v-1464h-1192v242zM270 1448q40 0 72 -11q12 -4 35.5 -12t34.5 -12q26 -10 55 -16q27 -6 55 -6q45 0 62 14q18 15 18 43h78q0 -73 -44 -119q-44 -45 -104 -45q-29 0 -61 8q-23 6 -59 19q-9 3 -31 9.5t-34 10.5q-30 10 -66 10
q-45 0 -62 -14q-18 -15 -18 -43h-78q0 73 44 119q43 45 103 45z" />
    <glyph glyph-name="uniFEF6" unicode="&#xfee0;&#xfe82;" horiz-adv-x="1492" arabic-form="final" 
d="M942 401v1063h291v-1022q0 -54 15 -91t40 -62q23 -23 57 -36q29 -11 62 -11h86q18 0 30 -4q13 -4 13 -25v-190q0 -23 -43 -23h-86q-39 0 -78 12q-38 12 -74 32q-33 19 -64 45q-28 24 -50 52q-36 -42 -83 -69q-46 -27 -92 -43q-49 -18 -89 -23q-43 -6 -76 -6h-760v242h225
v845h291v-845h244q23 0 45 7q26 8 46 25q19 17 36 50q14 28 14 77zM264 1460q40 0 72 -11q11 -4 34.5 -12t35.5 -12q26 -10 55 -16q27 -6 55 -6q45 0 62 14q18 15 18 43h78q0 -73 -44 -119q-44 -45 -104 -45q-25 0 -61 9q-32 8 -59 18q-9 3 -31 9.5t-34 10.5q-33 11 -67 11
q-43 0 -61 -15t-18 -43h-78q0 73 44 119q44 45 103 45z" />
    <glyph glyph-name="uniFEF7" unicode="&#xfedf;&#xfe84;" horiz-adv-x="1355" arabic-form="isolated" 
d="M41 242h225v845h291v-845h385v1222h291v-1464h-1192v242zM211 1456h65v6q-13 18 -20 37q-8 22 -8 43q0 72 48 111t126 39q24 0 60 -9q31 -8 54 -25q22 -17 38 -45q17 -30 18 -67h-111q-1 28 -18 43q-16 15 -41 15q-22 0 -39 -19q-16 -17 -16 -53q0 -70 57 -76h172v-94
h-385v94z" />
    <glyph glyph-name="uniFEF8" unicode="&#xfee0;&#xfe84;" horiz-adv-x="1492" arabic-form="final" 
d="M942 401v1063h291v-1022q0 -54 15 -91t40 -62q23 -23 57 -36q29 -11 62 -11h86q18 0 30 -4q13 -4 13 -25v-190q0 -23 -43 -23h-86q-39 0 -78 12q-38 12 -74 32q-33 19 -64 45q-28 24 -50 52q-36 -42 -83 -69q-46 -27 -92 -43q-49 -18 -89 -23q-43 -6 -76 -6h-760v242h225
v845h291v-845h244q23 0 45 7q26 8 46 25q19 17 36 50q14 28 14 77zM219 1483h66v6q-15 21 -21 37q-8 22 -8 43q0 71 48 110t126 39q28 0 60 -8q29 -7 54 -26q24 -18 39 -45q16 -28 17 -66h-111q-1 28 -18 43q-15 14 -41 14q-22 0 -39 -18q-16 -17 -16 -53q0 -70 57 -76h172
v-94h-385v94z" />
    <glyph glyph-name="uniFEF9" unicode="&#xfedf;&#xfe88;" horiz-adv-x="1355" arabic-form="isolated" 
d="M41 242h225v845h291v-845h385v1222h291v-1464h-1192v242zM211 -463h65v6q-13 18 -20 37q-8 22 -8 43q0 72 48 111t126 39q24 0 60 -9q31 -8 54 -25q22 -17 38 -45q17 -30 18 -67h-111q-1 28 -18 43t-41 15q-22 0 -39 -19q-16 -17 -16 -53q0 -31 13 -51t44 -25h172v-94
h-385v94z" />
    <glyph glyph-name="uniFEFA" unicode="&#xfee0;&#xfe88;" horiz-adv-x="1492" arabic-form="final" 
d="M942 401v1063h291v-1022q0 -54 15 -91t40 -62q23 -23 57 -36q29 -11 62 -11h86q18 0 30 -4q13 -4 13 -25v-190q0 -23 -43 -23h-86q-39 0 -78 12q-38 12 -74 32q-33 19 -64 45q-28 24 -50 52q-36 -42 -83 -69q-46 -27 -92 -43q-49 -18 -89 -23q-43 -6 -76 -6h-760v242h225
v845h291v-845h244q23 0 45 7q26 8 46 25q19 17 36 50q14 28 14 77zM203 -434h65v6q-13 18 -20 37q-8 22 -8 43q0 71 48 110t126 39q28 0 60 -8q30 -7 53 -25q23 -17 39 -46q17 -30 18 -66h-111q-1 28 -18 43q-15 14 -41 14q-22 0 -39 -18q-17 -19 -17 -53q0 -30 14 -52
q12 -19 44 -24h172v-94h-385v94z" />
    <glyph glyph-name="uniFEFB" unicode="&#xfedf;&#xfe8e;" horiz-adv-x="1355" arabic-form="isolated" 
d="M41 242h225v845h291v-845h385v1222h291v-1464h-1192v242z" />
    <glyph glyph-name="uniFEFC" unicode="&#xfee0;&#xfe8e;" horiz-adv-x="1492" arabic-form="final" 
d="M942 401v1063h291v-1022q0 -54 15 -91t40 -62q23 -23 57 -36q29 -11 62 -11h86q18 0 30 -4q13 -4 13 -25v-190q0 -23 -43 -23h-86q-39 0 -78 12q-38 12 -74 32q-33 19 -64 45q-28 24 -50 52q-36 -42 -83 -69q-46 -27 -92 -43q-49 -18 -89 -23q-43 -6 -76 -6h-760v242h225
v845h291v-845h244q23 0 45 7q26 8 46 25q19 17 36 50q14 28 14 77z" />
    <glyph glyph-name="uni06440671" unicode="&#xfedf;&#xfb51;" horiz-adv-x="1355" 
d="M483 1532q80 0 116 -44t36 -110v-106h-442v94h69q29 39 49 61q31 35 57 54q29 22 58 37q27 14 57 14zM522 1366v12q0 28 -15 45t-38 17q-41 0 -69 -26q-29 -27 -44 -48h166zM41 242h225v845h291v-845h385v1222h291v-1464h-1192v242z" />
    <glyph glyph-name="uni06440671.fina" unicode="&#xfee0;&#xfb51;" horiz-adv-x="1492" 
d="M483 1532q80 0 116 -44t36 -110v-106h-442v94h69q29 39 49 61q31 35 57 54q29 22 58 37q27 14 57 14zM522 1366v12q0 28 -15 45t-38 17q-41 0 -69 -26q-29 -27 -44 -48h166zM942 401v1063h291v-1022q0 -54 15 -91t40 -62q23 -23 57 -36q29 -11 62 -11h86q18 0 30 -4
q13 -4 13 -25v-190q0 -23 -43 -23h-86q-39 0 -78 12q-38 12 -74 32q-33 19 -64 45q-28 24 -50 52q-36 -42 -83 -69q-46 -27 -92 -43q-49 -18 -89 -23q-43 -6 -76 -6h-760v242h225v845h291v-845h244q23 0 45 7q26 8 46 25q19 17 36 50q14 28 14 77z" />
    <glyph glyph-name="uni0621" unicode="&#x621;" horiz-adv-x="1128" arabic-form="isolated" 
d="M41 0v242h211v14q-16 15 -37 37q-19 20 -37 50q-13 21 -27 60q-12 33 -12 70q0 90 38 168q36 73 103 128q65 53 146 81q84 29 172 29q90 0 167 -24q76 -24 134 -71q56 -46 91 -120q34 -72 40 -175h-244q-5 80 -56 123q-52 43 -132 43q-85 0 -131 -49q-47 -50 -47 -133
q0 -43 10 -83q10 -42 33 -75q22 -32 59 -53q36 -20 90 -20h435v-242h-1006z" />
    <glyph glyph-name="uni0622" unicode="&#x622;" horiz-adv-x="536" arabic-form="isolated" 
d="M145 1823q37 0 72 -12q12 -4 35.5 -11.5t34.5 -11.5q26 -10 55 -16q32 -7 55 -7q44 0 62 15t18 43h78q0 -73 -44 -119q-43 -45 -103 -45q-30 0 -62 8q-23 6 -59 19q-9 3 -31 9.5t-34 10.5q-30 10 -66 10q-45 0 -62 -14q-18 -15 -18 -43h-78q0 73 44 119q44 45 103 45z
M123 0v1464h291v-1464h-291z" />
    <glyph glyph-name="uni0623" unicode="&#x623;" horiz-adv-x="536" arabic-form="isolated" 
d="M78 1700h65v6q-13 18 -20 37q-8 22 -8 43q0 71 48 110t126 39q28 0 60 -8q29 -7 53 -25t39 -45q17 -30 18 -67h-111q-1 28 -18 43q-15 14 -41 14q-23 0 -39 -18q-17 -19 -17 -53q0 -70 58 -76h172v-94h-385v94zM123 0v1464h291v-1464h-291z" />
    <glyph glyph-name="uni0624" unicode="&#x624;" horiz-adv-x="1177" arabic-form="isolated" 
d="M84 1376h66v6q-29 35 -29 80q0 72 48 111t126 39q28 0 60 -8q29 -7 54 -26q22 -17 38 -45q17 -30 18 -67h-111q-1 28 -18 43q-16 15 -41 15q-22 0 -39 -19q-16 -17 -16 -53q0 -34 15 -55t52 -21h162v-94h-385v94zM426 -270q165 0 251 65t107 205h-254q-102 0 -185 33
t-141 93t-90 147q-32 88 -32 196q0 103 27 199q27 95 87 172q60 76 157 121t237 45t235 -43q98 -44 157 -123t87 -195q27 -114 27 -260q0 -233 -36 -399q-36 -165 -113 -271q-75 -103 -197 -153q-120 -49 -293 -49q-47 0 -78 4q-42 5 -60 10q-14 4 -51 16v219q40 -16 78 -24
q40 -8 80 -8zM373 473q0 -57 9 -100q9 -41 34 -73q23 -29 66 -44q39 -14 108 -14h217v151q0 93 -10 162q-10 70 -35 121q-23 48 -67 76q-40 26 -105 26q-63 0 -103 -25q-41 -25 -66 -69q-25 -43 -37 -98q-11 -51 -11 -113z" />
    <glyph glyph-name="uni0625" unicode="&#x625;" horiz-adv-x="536" arabic-form="isolated" 
d="M59 -434h66v6q-15 21 -21 37q-8 22 -8 43q0 71 48 110t126 39q29 0 61 -8q29 -7 53 -25q23 -17 39 -46q16 -28 17 -66h-110q-1 27 -19 43q-15 14 -41 14q-22 0 -39 -18q-16 -17 -16 -53q0 -32 13 -52q12 -19 44 -24h172v-94h-385v94zM123 0v1464h291v-1464h-291z" />
    <glyph glyph-name="uni0626" unicode="&#x626;" horiz-adv-x="1679" arabic-form="isolated" 
d="M66 510h65v6q-29 35 -29 80q0 71 49 111q47 38 125 38q29 0 61 -8q29 -7 53 -25t39 -45q15 -28 17 -67h-110q-1 27 -19 43q-15 14 -41 14q-22 0 -38 -18q-17 -19 -17 -53t16 -56q14 -20 52 -20h162v-94h-385v94zM850 -326q92 0 180 11q89 11 147 36q62 26 98 75
q36 48 36 122q0 38 -11 68q-11 29 -44 52q-34 23 -97 46q-62 22 -170 51q-81 21 -146 69q-68 51 -109 107q-43 59 -67 124t-24 120q0 91 30 174q29 81 90 143q60 62 149 98q88 36 206 36q192 0 314 -111q120 -110 135 -315h-252q-17 97 -63 149q-43 49 -134 49
q-76 0 -132 -55t-56 -168q0 -37 17 -71t57 -71q41 -38 102 -67q66 -31 156 -55q87 -22 152 -63q66 -42 105 -89q40 -48 59 -105q19 -56 19 -112q0 -111 -45 -201q-44 -89 -137 -154q-91 -64 -233 -99q-143 -35 -334 -35q-233 0 -383 63q-149 62 -238 173q-89 109 -123 258
q-34 148 -36 319h251q1 -147 26 -257q24 -108 84 -177q61 -70 162 -104t259 -34z" />
    <glyph glyph-name="uni0627" unicode="&#x627;" horiz-adv-x="536" arabic-form="isolated" 
d="M123 0v1464h291v-1464h-291z" />
    <glyph glyph-name="uni0628" unicode="&#x628;" horiz-adv-x="2031" arabic-form="isolated" 
d="M897 -195h291v-239h-291v239zM455 0q-87 0 -162 29q-74 29 -128 87t-84 147t-30 210v137h258v-108q0 -62 9 -110q9 -47 33 -82q23 -33 64 -51q38 -17 99 -17h1104v630h291v-872h-1454z" />
    <glyph glyph-name="uni0629" unicode="&#x629;" horiz-adv-x="1241" arabic-form="isolated" 
d="M666 1464h235v-233h-235v233zM317 1464h234v-233h-234v233zM621 778q-68 0 -111 -26q-47 -28 -73 -69q-28 -44 -40 -92q-12 -49 -12 -99t12 -100q12 -48 40 -92q26 -41 73 -69q43 -26 111 -26q67 0 110 26q47 28 73 69q28 44 40 92q12 49 12 100q0 50 -12 99
q-12 48 -40 92q-26 41 -73 69q-43 26 -110 26zM621 -23q-125 0 -226 36q-100 36 -170 103q-67 64 -106 162q-37 93 -37 214t37 214q38 96 106 161q70 67 170 103q101 36 226 36t225 -36t170 -103q68 -65 106 -161q37 -93 37 -214t-37 -214q-39 -98 -106 -162
q-70 -67 -170 -103t-225 -36z" />
    <glyph glyph-name="uni062A" unicode="&#x62a;" horiz-adv-x="2031" arabic-form="isolated" 
d="M1030 1286h236v-233h-236v233zM682 1286h233v-233h-233v233zM455 0q-87 0 -162 29q-74 29 -128 87t-84 147t-30 210v137h258v-108q0 -62 9 -110q9 -47 33 -82q23 -33 64 -51q38 -17 99 -17h1104v630h291v-872h-1454z" />
    <glyph glyph-name="uni062B" unicode="&#x62b;" horiz-adv-x="2031" arabic-form="isolated" 
d="M870 1599h236v-233h-236v233zM1044 1284h236v-233h-236v233zM696 1284h234v-233h-234v233zM455 0q-87 0 -162 29q-74 29 -128 87t-84 147t-30 210v137h258v-108q0 -62 9 -110q9 -47 33 -82q23 -33 64 -51q38 -17 99 -17h1104v630h291v-872h-1454z" />
    <glyph glyph-name="uni062C" unicode="&#x62c;" horiz-adv-x="1423" arabic-form="isolated" 
d="M582 -135h262v-215h-262v215zM578 0q-68 0 -113 -19q-47 -20 -78 -52t-45 -71q-14 -38 -14 -83q0 -78 19 -134q18 -52 67 -128h-277q-42 53 -68 116q-28 68 -28 152q0 81 30 164q30 82 90 148q62 68 153 108q94 41 221 41h477q-2 8 -7.5 23t-7.5 22q-2 8 -6.5 26.5
t-6.5 26.5q-5 22 -11 68q-10 80 -30 150q-19 68 -51 118q-30 48 -79 76q-45 26 -115 26q-60 0 -110 -21q-47 -20 -86 -56t-60 -78q-22 -45 -30 -91h-262q6 102 50 190q42 84 116 149q72 63 170 99q97 36 212 36q146 0 250 -48q99 -46 165 -130q65 -82 99 -195
q36 -117 52 -244q9 -69 22 -174q6 -51 16 -96q12 -54 13 -59q7 -27 16 -60h-753z" />
    <glyph glyph-name="uni062D" unicode="&#x62d;" horiz-adv-x="1423" arabic-form="isolated" 
d="M578 0q-68 0 -113 -19q-47 -20 -78 -52t-45 -71q-14 -38 -14 -83q0 -78 19 -134q18 -52 67 -128h-277q-42 53 -68 116q-28 68 -28 152q0 81 30 164q30 82 90 148q62 68 153 108q94 41 221 41h477q-2 8 -7.5 23t-7.5 22q-2 8 -6.5 26.5t-6.5 26.5q-5 22 -11 68
q-10 80 -30 150q-19 68 -51 118q-30 48 -79 76q-45 26 -115 26q-60 0 -110 -21q-47 -20 -86 -56t-60 -78q-22 -45 -30 -91h-262q6 102 50 190q42 84 116 149q72 63 170 99q97 36 212 36q146 0 250 -48q99 -46 165 -130q65 -82 99 -195q36 -117 52 -244q9 -69 22 -174
q6 -51 16 -96q12 -54 13 -59q7 -27 16 -60h-753z" />
    <glyph glyph-name="uni062E" unicode="&#x62e;" horiz-adv-x="1423" arabic-form="isolated" 
d="M547 1464h291v-239h-291v239zM578 0q-68 0 -113 -19q-47 -20 -78 -52t-45 -71q-14 -38 -14 -83q0 -78 19 -134q18 -52 67 -128h-277q-42 53 -68 116q-28 68 -28 152q0 81 30 164q30 82 90 148q62 68 153 108q94 41 221 41h477q-2 8 -7.5 23t-7.5 22q-2 8 -6.5 26.5
t-6.5 26.5q-5 22 -11 68q-10 80 -30 150q-19 68 -51 118q-30 48 -79 76q-45 26 -115 26q-60 0 -110 -21q-47 -20 -86 -56t-60 -78q-22 -45 -30 -91h-262q6 102 50 190q42 84 116 149q72 63 170 99q97 36 212 36q146 0 250 -48q99 -46 165 -130q65 -82 99 -195
q36 -117 52 -244q9 -69 22 -174q6 -51 16 -96q12 -54 13 -59q7 -27 16 -60h-753z" />
    <glyph glyph-name="uni062F" unicode="&#x62f;" horiz-adv-x="993" arabic-form="isolated" 
d="M51 242h557v164q0 73 -18 136q-18 62 -52 107q-36 47 -81 70q-47 24 -105 24h-211v228h211q114 0 212 -34q102 -35 174 -102q75 -69 119 -176q44 -108 44 -253v-406h-850v242z" />
    <glyph glyph-name="uni0630" unicode="&#x630;" horiz-adv-x="993" arabic-form="isolated" 
d="M158 1466h291v-239h-291v239zM51 242h557v164q0 73 -18 136q-18 62 -52 107q-36 47 -81 70q-47 24 -105 24h-211v228h211q114 0 212 -34q102 -35 174 -102q75 -69 119 -176q44 -108 44 -253v-406h-850v242z" />
    <glyph glyph-name="uni0631" unicode="&#x631;" horiz-adv-x="710" arabic-form="isolated" 
d="M588 872v-839q0 -115 -20 -212q-20 -95 -63 -164t-118 -107q-73 -37 -184 -37q-44 0 -95 8q-50 8 -88 24v211q24 -16 54 -21q32 -5 63 -5q89 0 123 74q35 76 35 229v839h293z" />
    <glyph glyph-name="uni0632" unicode="&#x632;" horiz-adv-x="729" arabic-form="isolated" 
d="M315 1464h291v-239h-291v239zM588 872v-839q0 -115 -20 -212q-20 -95 -63 -164t-118 -107q-73 -37 -184 -37q-44 0 -95 8q-50 8 -88 24v211q24 -16 54 -21q32 -5 63 -5q89 0 123 74q35 76 35 229v839h293z" />
    <glyph glyph-name="uni0633" unicode="&#x633;" horiz-adv-x="3002" arabic-form="isolated" 
d="M852 -487q-244 0 -395 68q-155 70 -241 187q-87 119 -120 276q-33 159 -33 339v147h277v-147q0 -169 30 -288q30 -117 92 -193q62 -75 159 -110q95 -34 227 -34q130 0 223 34q95 35 157 110q62 76 92 193q30 119 30 288v403h290v-409q0 -78 47 -111t121 -33q76 0 113 33
t37 111v452h291v-444q0 -78 30 -111q29 -32 84 -32h224v630h292v-872h-460q-29 0 -61 9q-29 8 -61 26q-29 16 -53 40t-36 54h-8q-46 -69 -123 -102t-191 -33q-89 0 -156 29q-68 30 -102 69h-8q-27 -131 -79 -238q-52 -108 -142 -184q-88 -75 -224 -116q-135 -41 -323 -41z
" />
    <glyph glyph-name="uni0634" unicode="&#x634;" horiz-adv-x="3002" arabic-form="isolated" 
d="M2003 1782h235v-234h-235v234zM2177 1466h236v-233h-236v233zM1829 1466h233v-233h-233v233zM852 -487q-244 0 -395 68q-155 70 -241 187q-87 119 -120 276q-33 159 -33 339v147h277v-147q0 -169 30 -288q30 -117 92 -193q62 -75 159 -110q95 -34 227 -34q130 0 223 34
q95 35 157 110q62 76 92 193q30 119 30 288v403h290v-409q0 -78 47 -111t121 -33q76 0 113 33t37 111v452h291v-444q0 -78 30 -111q29 -32 84 -32h224v630h292v-872h-460q-29 0 -61 9q-29 8 -61 26q-29 16 -53 40t-36 54h-8q-46 -69 -123 -102t-191 -33q-89 0 -156 29
q-68 30 -102 69h-8q-27 -131 -79 -238q-52 -108 -142 -184q-88 -75 -224 -116q-135 -41 -323 -41z" />
    <glyph glyph-name="uni0635" unicode="&#x635;" horiz-adv-x="3049" arabic-form="isolated" 
d="M2384 719q-90 0 -174 -33q-85 -33 -158 -84q-77 -53 -135 -110t-108 -113q-40 -45 -73 -91q-26 -37 -32 -46h962v254q0 116 -75 169q-77 54 -207 54zM852 -487q-244 0 -395 68q-155 70 -241 187q-87 119 -120 276q-33 159 -33 339v147h277v-147q0 -169 30 -288
q30 -117 92 -193q62 -75 159 -110q95 -34 227 -34q130 0 223 34q95 35 157 110q62 76 92 193q30 119 30 288v432h278v-326h8q65 83 151 170q82 83 178 152q97 69 203 109q109 41 222 41q115 0 220 -29q102 -28 180 -86q76 -57 122 -144q45 -86 45 -200v-502h-1358
q-33 -112 -90 -200t-146 -153q-90 -66 -215 -100q-124 -34 -296 -34z" />
    <glyph glyph-name="uni0636" unicode="&#x636;" horiz-adv-x="3049" arabic-form="isolated" 
d="M1630 1464h291v-239h-291v239zM2384 719q-90 0 -174 -33q-85 -33 -158 -84q-77 -53 -135 -110t-108 -113q-40 -45 -73 -91q-26 -37 -32 -46h962v254q0 116 -75 169q-77 54 -207 54zM852 -487q-244 0 -395 68q-155 70 -241 187q-87 119 -120 276q-33 159 -33 339v147h277
v-147q0 -169 30 -288q30 -117 92 -193q62 -75 159 -110q95 -34 227 -34q130 0 223 34q95 35 157 110q62 76 92 193q30 119 30 288v432h278v-326h8q65 83 151 170q82 83 178 152q97 69 203 109q109 41 222 41q115 0 220 -29q102 -28 180 -86q76 -57 122 -144q45 -86 45 -200
v-502h-1358q-33 -112 -90 -200t-146 -153q-90 -66 -215 -100q-124 -34 -296 -34z" />
    <glyph glyph-name="uni0637" unicode="&#x637;" horiz-adv-x="1839" arabic-form="isolated" 
d="M41 242h154v1222h258v-940h8q66 82 145 160q77 75 170 139t192 100q103 38 212 38q116 0 220 -33q102 -32 180 -97q78 -64 122 -157q45 -94 45 -217v-457h-1706v242zM1171 719q-89 0 -171 -33q-81 -32 -156 -83q-74 -50 -136 -109q-57 -54 -109 -113q-47 -53 -74 -92
q-30 -43 -33 -47h962v211q0 128 -76 197t-207 69z" />
    <glyph glyph-name="uni0638" unicode="&#x638;" horiz-adv-x="1839" arabic-form="isolated" 
d="M760 1407h291v-240h-291v240zM41 242h154v1222h258v-940h8q66 82 145 160q77 75 170 139t192 100q103 38 212 38q116 0 220 -33q102 -32 180 -97q78 -64 122 -157q45 -94 45 -217v-457h-1706v242zM1171 719q-89 0 -171 -33q-81 -32 -156 -83q-74 -50 -136 -109
q-57 -54 -109 -113q-47 -53 -74 -92q-30 -43 -33 -47h962v211q0 128 -76 197t-207 69z" />
    <glyph glyph-name="uni0639" unicode="&#x639;" horiz-adv-x="1243" arabic-form="isolated" 
d="M41 -225q0 69 16 132q16 64 51 121q33 55 85 102t122 75v8q-53 47 -87 129q-33 79 -33 188q0 101 24 188q23 85 82 151q57 65 151 101q93 36 232 36q103 0 184 -28q76 -26 132 -81q55 -53 86 -129q32 -79 44 -174h-258q-18 86 -63 135t-125 49q-107 0 -156 -65t-49 -183
q0 -143 58 -216q57 -72 190 -72h434v-242h-586q-63 0 -112 -22q-47 -21 -77 -54q-29 -32 -44 -72q-14 -38 -14 -77q0 -78 19 -134q18 -52 67 -128h-277q-43 54 -68 113q-28 65 -28 149z" />
    <glyph glyph-name="uni063A" unicode="&#x63a;" horiz-adv-x="1243" arabic-form="isolated" 
d="M512 1489h291v-240h-291v240zM41 -225q0 69 16 132q16 64 51 121q33 55 85 102t122 75v8q-53 47 -87 129q-33 79 -33 188q0 101 24 188q23 85 82 151q57 65 151 101q93 36 232 36q103 0 184 -28q76 -26 132 -81q55 -53 86 -129q32 -79 44 -174h-258q-18 86 -63 135
t-125 49q-107 0 -156 -65t-49 -183q0 -143 58 -216q57 -72 190 -72h434v-242h-586q-63 0 -112 -22q-47 -21 -77 -54q-29 -32 -44 -72q-14 -38 -14 -77q0 -78 19 -134q18 -52 67 -128h-277q-43 54 -68 113q-28 65 -28 149z" />
    <glyph glyph-name="uni0641" unicode="&#x641;" horiz-adv-x="2289" arabic-form="isolated" 
d="M1542 1464h291v-239h-291v239zM1135 502q0 124 40 216q42 96 111 158q71 64 169 97t212 33q111 0 213 -31q97 -29 171 -94q73 -64 115 -158t42 -221q0 -126 -42 -221q-41 -92 -115 -157q-72 -63 -171 -93q-102 -31 -213 -31h-1212q-87 0 -162 29q-74 29 -128 87t-84 147
t-30 210v137h258v-108q0 -62 9 -110q9 -47 33 -82q23 -33 64 -51q38 -17 99 -17h735v8q-48 45 -81 111t-33 141zM1430 502q0 -122 59 -197q60 -76 178 -76q57 0 103 22q45 22 74 58q30 38 45 86q16 53 16 107t-16 107q-15 51 -45 88q-32 40 -74 60q-43 21 -103 21
q-59 0 -103 -21q-42 -20 -74 -60q-30 -37 -45 -88q-15 -50 -15 -107z" />
    <glyph glyph-name="uni0642" unicode="&#x642;" horiz-adv-x="1738" arabic-form="isolated" 
d="M844 -569q-228 0 -375 59q-151 61 -239 166q-90 108 -127 252q-39 150 -40 315h271q1 -144 33 -254q30 -104 93 -170q62 -65 158 -95t230 -30q190 0 315 73q123 72 183 253h-254q-104 0 -186 33t-141 93t-90 147q-32 88 -32 196q0 103 27 199q27 95 87 172q60 76 157 121
q98 45 237 45q140 0 235 -43q98 -44 157 -123t87 -195q27 -114 27 -260q0 -241 -42 -419q-42 -180 -138 -298q-95 -118 -252 -178q-153 -59 -381 -59zM1368 393q0 93 -10 162q-10 70 -35 121q-23 48 -67 76q-40 26 -105 26q-62 0 -102 -25q-42 -26 -67 -69t-37 -98
q-11 -51 -11 -113q0 -57 9 -100q9 -41 34 -73q23 -29 66 -44q39 -14 108 -14h215q2 50 2 73v78zM1227 1464h235v-233h-235v233zM879 1464h233v-233h-233v233z" />
    <glyph glyph-name="uni0643" unicode="&#x643;" horiz-adv-x="1542" arabic-form="isolated" 
d="M1126 242v1222h293v-1464h-966q-87 0 -162 29t-127 87q-54 60 -83 146q-30 88 -30 209v139h256v-106q0 -62 9 -110q9 -47 33 -82q24 -34 64 -52q41 -18 99 -18h614zM516 696h66v6q-29 35 -29 80q0 72 48 111t126 39q28 0 60 -8q29 -7 54 -26q24 -18 39 -45q15 -28 17 -67
h-111q-1 28 -18 43t-41 15q-22 0 -39 -19q-16 -17 -16 -53q0 -34 15 -55t52 -21h162v-94h-385v94z" />
    <glyph glyph-name="uni0644" unicode="&#x644;" horiz-adv-x="1554" arabic-form="isolated" 
d="M1432 1464v-1050q0 -220 -33 -390q-33 -169 -114 -283t-217 -171t-341 -57q-207 0 -336 63q-130 63 -202 178q-72 113 -99 275q-27 159 -27 354h263q0 -189 23 -305q24 -123 73 -194q50 -72 126 -102t185 -30q107 0 185 30q76 29 126 102q49 71 73 194q24 121 24 305
v1081h291z" />
    <glyph glyph-name="uni0645" unicode="&#x645;" horiz-adv-x="1417" arabic-form="isolated" 
d="M551 0q-67 0 -108 -16q-42 -16 -66 -45q-25 -30 -34 -66q-9 -38 -9 -76v-284h-293v297q0 164 82 279q83 115 258 144q-54 57 -86 127q-33 72 -33 142q0 124 40 216q41 95 112 158q71 64 169 97t212 33q111 0 213 -31q97 -29 171 -94q72 -63 114 -158t42 -221t-42 -221
q-42 -94 -114 -157t-171 -93q-102 -31 -213 -31h-244zM557 502q0 -122 59 -197q60 -76 179 -76q57 0 103 22q45 22 74 58q30 38 45 86q15 50 15 107q0 58 -15 107q-15 51 -45 88q-32 40 -74 60q-44 21 -103 21q-61 0 -104 -21q-42 -20 -74 -60q-30 -37 -45 -88
q-15 -49 -15 -107z" />
    <glyph glyph-name="uni0646" unicode="&#x646;" horiz-adv-x="1765" arabic-form="isolated" 
d="M719 1034h291v-239h-291v239zM848 -242q130 0 223 34q95 35 157 110q62 76 92 193q30 119 30 288v233h292v-202q0 -198 -33 -356q-35 -166 -122 -286q-89 -122 -242 -191q-151 -68 -393 -68q-244 0 -395 68q-155 70 -241 187q-87 119 -120 276q-33 159 -33 339v190h277
v-190q0 -169 30 -288q30 -117 92 -193q62 -75 159 -110q95 -34 227 -34z" />
    <glyph glyph-name="uni0648" unicode="&#x648;" horiz-adv-x="1177" arabic-form="isolated" 
d="M426 -270q165 0 251 65t107 205h-254q-102 0 -185 33t-141 93t-90 147q-32 88 -32 196q0 103 27 199q27 95 87 172q60 76 157 121t237 45t235 -43q98 -44 157 -123t87 -195q27 -114 27 -260q0 -233 -36 -399q-36 -165 -113 -271q-75 -103 -197 -153q-120 -49 -293 -49
q-47 0 -78 4q-42 5 -60 10q-14 4 -51 16v219q40 -16 78 -24q40 -8 80 -8zM373 473q0 -57 9 -100q9 -41 34 -73q23 -29 66 -44q39 -14 108 -14h217v151q0 93 -10 162q-10 70 -35 121q-23 48 -67 76q-40 26 -105 26q-63 0 -103 -25q-41 -25 -66 -69q-25 -43 -37 -98
q-11 -51 -11 -113z" />
    <glyph glyph-name="uni0649" unicode="&#x649;" horiz-adv-x="1675" arabic-form="isolated" 
d="M846 -326q92 0 180 11t146 36q63 27 99 75t36 122q0 38 -11 68q-11 29 -44 52q-34 23 -97 46q-62 22 -170 51q-81 21 -146 69q-68 51 -109 107q-43 59 -67 124t-24 120q0 91 30 174q29 81 90 143q60 62 149 98q88 36 206 36q192 0 313 -111t136 -315h-252q-17 97 -63 149
q-43 49 -134 49q-76 0 -132 -55t-56 -168q0 -37 17 -71q18 -36 56 -71q40 -37 103 -67q67 -32 155 -55q89 -23 153 -63t104 -89q41 -51 60 -105q19 -56 19 -112q0 -111 -45 -201q-44 -89 -137 -154q-91 -64 -233 -99q-143 -35 -334 -35q-233 0 -383 63q-149 62 -238 173
q-89 109 -123 258q-36 153 -37 319h252q1 -147 26 -257q24 -108 84 -177q61 -70 162 -104t259 -34z" />
    <glyph glyph-name="uni064A" unicode="&#x64a;" horiz-adv-x="1675" arabic-form="isolated" 
d="M936 -727h235v-234h-235v234zM588 -727h233v-234h-233v234zM846 -326q92 0 180 11t146 36q63 27 99 75t36 122q0 38 -11 68q-11 29 -44 52q-34 23 -97 46q-62 22 -170 51q-81 21 -146 69q-68 51 -109 107q-43 59 -67 124t-24 120q0 91 30 174q29 81 90 143q60 62 149 98
q88 36 206 36q192 0 313 -111t136 -315h-252q-17 97 -63 149q-43 49 -134 49q-76 0 -132 -55t-56 -168q0 -37 17 -71q18 -36 56 -71q40 -37 103 -67q67 -32 155 -55q89 -23 153 -63t104 -89q41 -51 60 -105q19 -56 19 -112q0 -111 -45 -201q-44 -89 -137 -154
q-91 -64 -233 -99q-143 -35 -334 -35q-233 0 -383 63q-149 62 -238 173q-89 109 -123 258q-36 153 -37 319h252q1 -147 26 -257q24 -108 84 -177q61 -70 162 -104t259 -34z" />
    <glyph glyph-name="uni0671" unicode="&#x671;" horiz-adv-x="536" arabic-form="isolated" 
d="M332 1939q79 0 115 -44q36 -43 36 -109v-107h-442v95h70q30 39 49 61q30 34 56 53q29 22 58 37q27 14 58 14zM371 1774v12q0 27 -16 45q-15 16 -38 16q-42 0 -68 -25q-29 -27 -44 -48h166zM123 0v1464h291v-1464h-291z" />
    <glyph glyph-name="uni0679" unicode="&#x679;" horiz-adv-x="2031" arabic-form="isolated" 
d="M455 0q-87 0 -162 29q-74 29 -128 87t-84 147t-30 210v137h258v-108q0 -62 9 -110q9 -47 33 -82q23 -33 64 -51q38 -17 99 -17h1104v630h291v-872h-1454zM1055 1133q79 0 115 -44t36 -110v-107h-442v95h47v284h113v-190h8q28 30 57 50q31 22 66 22zM1094 967v12
q0 27 -16 45q-15 16 -38 16q-42 0 -68 -25q-29 -27 -44 -48h166z" />
    <glyph glyph-name="uni067E" unicode="&#x67e;" horiz-adv-x="2031" arabic-form="isolated" 
d="M924 -518h235v-234h-235v234zM1098 -203h235v-233h-235v233zM750 -203h233v-233h-233v233zM455 0q-87 0 -162 29q-74 29 -128 87t-84 147t-30 210v137h258v-108q0 -62 9 -110q9 -47 33 -82q23 -33 64 -51q38 -17 99 -17h1104v630h291v-872h-1454z" />
    <glyph glyph-name="uni0686" unicode="&#x686;" horiz-adv-x="1423" arabic-form="isolated" 
d="M723 -78h154v-151h-154v151zM498 -78h151v-151h-151v151zM610 -283h154v-153h-154v153zM578 0q-68 0 -113 -19q-47 -20 -78 -52t-45 -71q-14 -38 -14 -83q0 -78 19 -134q18 -52 67 -128h-277q-42 53 -68 116q-28 68 -28 152q0 81 30 164q30 82 90 148q62 68 153 108
q94 41 221 41h477q-2 8 -7.5 23t-7.5 22q-2 8 -6.5 26.5t-6.5 26.5q-5 22 -11 68q-10 80 -30 150q-19 68 -51 118q-30 48 -79 76q-45 26 -115 26q-60 0 -110 -21q-47 -20 -86 -56t-60 -78q-22 -45 -30 -91h-262q6 102 50 190q42 84 116 149q72 63 170 99q97 36 212 36
q146 0 250 -48q99 -46 165 -130q65 -82 99 -195q36 -117 52 -244q9 -69 22 -174q6 -51 16 -96q12 -54 13 -59q7 -27 16 -60h-753z" />
    <glyph glyph-name="uni0688" unicode="&#x688;" horiz-adv-x="1073" arabic-form="isolated" 
d="M512 1462q80 0 116 -44t36 -109v-107h-443v94h47v285h113v-190h8q28 30 57 50q30 21 66 21zM551 1296v13q0 29 -15 45t-38 16q-43 0 -69 -25t-44 -49h166zM131 242h557v164q0 73 -18 136q-17 60 -53 107q-36 48 -80 70q-47 24 -105 24h-211v228h211q114 0 212 -34
q102 -35 174 -102q75 -69 119 -176q44 -108 44 -253v-406h-850v242z" />
    <glyph glyph-name="uni0691" unicode="&#x691;" horiz-adv-x="702" arabic-form="isolated" 
d="M502 1462q79 0 115 -44t36 -109v-107h-442v94h47v285h113v-190h8q28 30 57 50q30 21 66 21zM541 1296v13q0 27 -16 45q-15 16 -38 16q-42 0 -68 -25t-44 -49h166zM582 872v-839q0 -115 -20 -212q-20 -95 -63 -164t-118 -107q-73 -37 -184 -37q-45 0 -96 8q-48 7 -87 24
v211q24 -16 54 -21q32 -5 63 -5q89 0 123 74q35 76 35 229v839h293z" />
    <glyph glyph-name="uni0698" unicode="&#x698;" horiz-adv-x="702" arabic-form="isolated" 
d="M334 1780h235v-234h-235v234zM508 1464h235v-233h-235v233zM160 1464h233v-233h-233v233zM582 872v-839q0 -115 -20 -212q-20 -95 -63 -164t-118 -107q-73 -37 -184 -37q-45 0 -96 8q-48 7 -87 24v211q24 -16 54 -21q32 -5 63 -5q89 0 123 74q35 76 35 229v839h293z" />
    <glyph glyph-name="uni06A4" unicode="&#x6a4;" horiz-adv-x="2289" arabic-form="isolated" 
d="M1567 1780h235v-234h-235v234zM1741 1464h235v-233h-235v233zM1393 1464h233v-233h-233v233zM1135 502q0 124 40 216q42 96 111 158q71 64 169 97t212 33q111 0 213 -31q97 -29 171 -94q73 -64 115 -158t42 -221q0 -126 -42 -221q-41 -92 -115 -157q-72 -63 -171 -93
q-102 -31 -213 -31h-1212q-87 0 -162 29q-74 29 -128 87t-84 147t-30 210v137h258v-108q0 -62 9 -110q9 -47 33 -82q23 -33 64 -51q38 -17 99 -17h735v8q-48 45 -81 111t-33 141zM1430 502q0 -122 59 -197q60 -76 178 -76q57 0 103 22q45 22 74 58q30 38 45 86q16 53 16 107
t-16 107q-15 51 -45 88q-32 40 -74 60q-43 21 -103 21q-59 0 -103 -21q-42 -20 -74 -60q-30 -37 -45 -88q-15 -50 -15 -107z" />
    <glyph glyph-name="uni06A9" unicode="&#x6a9;" horiz-adv-x="1859" arabic-form="isolated" 
d="M1190 971q298 0 438 -142q139 -140 139 -409v-420h-1314q-87 0 -162 29t-127 87q-54 60 -83 146q-30 88 -30 209v139h256v-106q0 -125 43 -193q44 -69 162 -69h965v190q0 162 -76 237q-75 74 -211 74h-512v228l491 493h310l-488 -493h199z" />
    <glyph glyph-name="uni06AF" unicode="&#x6af;" horiz-adv-x="1859" arabic-form="isolated" 
d="M295 971l489 493h224l-494 -493h-219zM1190 971q298 0 438 -142q139 -140 139 -409v-420h-1314q-87 0 -162 29t-127 87q-54 60 -83 146q-30 88 -30 209v139h256v-106q0 -125 43 -193q44 -69 162 -69h965v190q0 162 -76 237q-75 74 -211 74h-512v228l491 493h310
l-488 -493h199z" />
    <glyph glyph-name="uni06BA" unicode="&#x6ba;" horiz-adv-x="1773" arabic-form="isolated" 
d="M848 -242q130 0 223 34q95 35 157 110q62 76 92 193q30 119 30 288v233h292v-202q0 -198 -33 -356q-35 -166 -122 -286q-89 -122 -242 -191q-151 -68 -393 -68q-244 0 -395 68q-155 70 -241 187q-87 119 -120 276q-33 159 -33 339v190h277v-190q0 -169 30 -288
q30 -117 92 -193q62 -75 159 -110q95 -34 227 -34z" />
    <glyph glyph-name="uni06BE" unicode="&#x6be;" horiz-adv-x="1859" arabic-form="isolated" 
d="M487 406q0 80 27 141t71 105t104 71q58 26 128 37q62 109 169 178q106 68 253 68q144 0 245 -40t164 -115q62 -74 91 -180q28 -103 28 -237v-434h-1278q-84 0 -120 -31q-35 -30 -35 -110v-27h-293v39q0 191 110 281q109 90 287 90h82q-33 72 -33 164zM1477 434
q0 190 -57 272t-181 82q-43 0 -93 -21q-49 -21 -83 -73q64 -44 102 -113q39 -71 39 -175q0 -94 -35 -164h308v192zM997 406q0 91 -41 135q-40 43 -110 43q-71 0 -111 -43q-41 -44 -41 -135q0 -92 41 -138q41 -45 111 -45q69 0 110 45q41 46 41 138z" />
    <glyph glyph-name="uni06C1" unicode="&#x6c1;" horiz-adv-x="1241" arabic-form="isolated" 
d="M621 778q-68 0 -111 -26q-47 -28 -73 -69q-28 -44 -40 -92q-12 -49 -12 -99t12 -100q12 -48 40 -92q26 -41 73 -69q43 -26 111 -26q67 0 110 26q47 28 73 69q28 44 40 92q12 49 12 100q0 50 -12 99q-12 48 -40 92q-26 41 -73 69q-43 26 -110 26zM621 -23q-125 0 -226 36
q-100 36 -170 103q-67 64 -106 162q-37 93 -37 214t37 214q38 96 106 161q70 67 170 103q101 36 226 36t225 -36t170 -103q68 -65 106 -161q37 -93 37 -214t-37 -214q-39 -98 -106 -162q-70 -67 -170 -103t-225 -36z" />
    <glyph glyph-name="uni06C2.fina" unicode="&#x6c2;" horiz-adv-x="1245" 
d="M410 1374h65v6q-29 35 -29 80q0 71 49 111q48 39 126 39q28 0 60 -8q27 -7 53 -26q24 -18 39 -45q17 -30 18 -67h-111q-1 28 -18 43q-16 15 -41 15q-22 0 -39 -19t-17 -53q0 -33 16 -55q15 -21 52 -21h162v-94h-385v94zM1251 242q18 0 30 -4q13 -4 13 -25v-190
q0 -23 -43 -23h-100q-78 0 -149 23q-68 22 -118 63q-51 42 -80 100q-30 60 -30 133v406h-199q-61 0 -101 -20q-42 -21 -67 -58t-37 -85t-12 -103v-279h-276v283q0 98 30 188q30 91 91 159q63 70 154 110q94 41 218 41h474v-506q0 -120 37 -166q38 -47 128 -47h37z" />
    <glyph glyph-name="uni06C3.fina" unicode="&#x6c3;" horiz-adv-x="1251" 
d="M651 1464h236v-233h-236v233zM303 1464h234v-233h-234v233zM1251 242q18 0 30 -4q13 -4 13 -25v-190q0 -23 -43 -23h-100q-105 0 -181 57q-78 58 -112 156q-47 -66 -128 -110q-82 -44 -179 -44q-93 0 -181 31q-86 30 -149 87q-65 58 -101 137q-38 82 -38 184
q0 100 30 187q31 89 91 151q62 63 154 99q93 36 218 36h474v-516q0 -120 37 -166q38 -47 128 -47h37zM565 291q39 0 77 12q39 12 67 39q30 28 47 70q18 44 18 102v223h-199q-108 0 -162 -64q-55 -66 -55 -175q0 -104 54 -156q52 -51 153 -51z" />
    <glyph glyph-name="uni06CC" unicode="&#x6cc;" horiz-adv-x="1675" arabic-form="isolated" 
d="M846 -326q92 0 180 11t146 36q63 27 99 75t36 122q0 38 -11 68q-11 29 -44 52q-34 23 -97 46q-62 22 -170 51q-81 21 -146 69q-68 51 -109 107q-43 59 -67 124t-24 120q0 91 30 174q29 81 90 143q60 62 149 98q88 36 206 36q192 0 313 -111t136 -315h-252q-17 97 -63 149
q-43 49 -134 49q-76 0 -132 -55t-56 -168q0 -37 17 -71q18 -36 56 -71q40 -37 103 -67q67 -32 155 -55q89 -23 153 -63t104 -89q41 -51 60 -105q19 -56 19 -112q0 -111 -45 -201q-44 -89 -137 -154q-91 -64 -233 -99q-143 -35 -334 -35q-233 0 -383 63q-149 62 -238 173
q-89 109 -123 258q-36 153 -37 319h252q1 -147 26 -257q24 -108 84 -177q61 -70 162 -104t259 -34z" />
    <glyph glyph-name="uni06D2" unicode="&#x6d2;" horiz-adv-x="1849" arabic-form="isolated" 
d="M961 725h-332q-134 0 -211 -75q-76 -75 -76 -236v-174h965q117 0 161 69q43 68 43 193v108h256v-139q0 -123 -29 -209t-83 -146q-52 -58 -127 -87t-162 -29h-1315v401q0 270 139 410q139 141 439 141h332v-227z" />
    <glyph glyph-name="uni06D3" unicode="&#x6d3;" horiz-adv-x="1849" arabic-form="isolated" 
d="M573 1284h66v6q-29 35 -29 80q0 72 48 111t126 39q25 0 61 -9q29 -7 53 -25t39 -45q15 -28 17 -67h-110q-1 27 -19 43q-17 15 -41 15q-22 0 -39 -19q-16 -17 -16 -53q0 -34 15 -55t53 -21h161v-94h-385v94zM961 725h-332q-134 0 -211 -75q-76 -75 -76 -236v-174h965
q117 0 161 69q43 68 43 193v108h256v-139q0 -123 -29 -209t-83 -146q-52 -58 -127 -87t-162 -29h-1315v401q0 270 139 410q139 141 439 141h332v-227z" />
    <glyph glyph-name="uni06D5.fina" unicode="&#x6d5;" horiz-adv-x="1251" 
d="M1251 242q18 0 30 -4q13 -4 13 -25v-190q0 -23 -43 -23h-100q-105 0 -181 57q-78 58 -112 156q-47 -66 -128 -110q-82 -44 -179 -44q-93 0 -181 31q-86 30 -149 87q-65 58 -101 137q-38 82 -38 184q0 100 30 187q31 89 91 151q62 63 154 99q93 36 218 36h474v-516
q0 -120 37 -166q38 -47 128 -47h37zM565 291q39 0 77 12q39 12 67 39q30 28 47 70q18 44 18 102v223h-199q-108 0 -162 -64q-55 -66 -55 -175q0 -104 54 -156q52 -51 153 -51z" />
    <glyph glyph-name="uniFB51" unicode="&#x671;" horiz-adv-x="561" arabic-form="final" 
d="M350 1939q80 0 116 -44q36 -43 36 -109v-107h-443v95h70q29 39 49 61q30 34 56 53q27 20 59 37q27 14 57 14zM389 1774v12q0 28 -15 45q-15 16 -38 16q-43 0 -69 -25q-29 -27 -44 -48h166zM561 242q18 0 30 -4q13 -4 13 -25v-190q0 -23 -43 -23h-438v1464h291v-1222h147z
" />
    <glyph glyph-name="uniFB57" unicode="&#x67e;" horiz-adv-x="2174" arabic-form="final" 
d="M909 -518h236v-234h-236v234zM1083 -203h236v-233h-236v233zM735 -203h234v-233h-234v233zM2175 242q18 0 30 -4q13 -4 13 -25v-190q0 -23 -43 -23h-92q-39 0 -78 12q-38 12 -74 32q-33 19 -64 45q-28 24 -50 52q-36 -42 -83 -69q-44 -26 -93 -43q-49 -18 -89 -23
q-44 -6 -75 -6h-1022q-87 0 -162 29q-74 29 -128 87t-84 147t-30 210v137h258v-108q0 -62 9 -110q9 -47 33 -82q23 -33 64 -51q38 -17 99 -17h963q23 0 45 7q26 8 46 25q19 17 36 50q14 28 14 77v471h291v-440q0 -48 15 -86q14 -35 41 -59q24 -21 56 -34q27 -11 62 -11h92z
" />
    <glyph glyph-name="uniFB58" unicode="&#x67e;" horiz-adv-x="765" arabic-form="initial" 
d="M225 -518h236v-234h-236v234zM399 -203h236v-233h-236v233zM51 -203h234v-233h-234v233zM0 0q-43 0 -43 23v190q0 21 13 25q12 4 30 4h352v630h291v-872h-643z" />
    <glyph glyph-name="uniFB59" unicode="&#x67e;" horiz-adv-x="972" arabic-form="medial" 
d="M463 -518h235v-234h-235v234zM637 -203h235v-233h-235v233zM289 -203h233v-233h-233v233zM0 0q-43 0 -43 23v190q0 21 13 25q12 4 30 4h274q23 0 45 7q28 9 47 25q18 15 35 50q15 30 15 77v471h291v-430q0 -54 15 -91t40 -62q24 -24 56 -36q29 -11 63 -11h92q17 0 29 -4
q14 -5 14 -25v-190q0 -23 -43 -23h-92q-39 0 -78 12q-38 12 -74 32q-33 19 -64 45t-51 52q-36 -42 -83 -69q-46 -27 -92 -43q-49 -18 -89 -23q-44 -6 -76 -6h-274z" />
    <glyph glyph-name="uniFB67" unicode="&#x679;" horiz-adv-x="2174" arabic-form="final" 
d="M2175 242q18 0 30 -4q13 -4 13 -25v-190q0 -23 -43 -23h-92q-39 0 -78 12q-38 12 -74 32q-33 19 -64 45q-28 24 -50 52q-36 -42 -83 -69q-44 -26 -93 -43q-49 -18 -89 -23q-44 -6 -75 -6h-1022q-87 0 -162 29q-74 29 -128 87t-84 147t-30 210v137h258v-108q0 -62 9 -110
q9 -47 33 -82q23 -33 64 -51q38 -17 99 -17h963q23 0 45 7q26 8 46 25q19 17 36 50q14 28 14 77v471h291v-440q0 -48 15 -86q14 -35 41 -59q24 -21 56 -34q27 -11 62 -11h92zM1040 1133q80 0 116 -44t36 -110v-107h-442v95h47v284h112v-190h9q28 30 57 50q31 22 65 22z
M1079 967v12q0 29 -15 45t-38 16q-43 0 -69 -25q-29 -27 -44 -48h166z" />
    <glyph glyph-name="uniFB68" unicode="&#x679;" horiz-adv-x="765" arabic-form="initial" 
d="M489 1462q80 0 116 -44t36 -109v-107h-442v94h47v285h112v-190h9q28 30 57 50q30 21 65 21zM528 1296v13q0 29 -15 45t-38 16q-42 0 -68 -25q-29 -28 -45 -49h166zM0 0q-43 0 -43 23v190q0 21 13 25q12 4 30 4h352v630h291v-872h-643z" />
    <glyph glyph-name="uniFB69" unicode="&#x679;" horiz-adv-x="972" arabic-form="medial" 
d="M637 1458q80 0 116 -44q35 -42 35 -109v-107h-442v94h47v285h113v-191h8q31 33 57 51q30 21 66 21zM676 1292v13q0 27 -16 45q-15 16 -37 16q-41 0 -69 -26q-29 -27 -44 -48h166zM0 0q-43 0 -43 23v190q0 21 13 25q12 4 30 4h274q23 0 45 7q28 9 47 25q18 15 35 50
q15 30 15 77v471h291v-430q0 -54 15 -91t40 -62q24 -24 56 -36q29 -11 63 -11h92q17 0 29 -4q14 -5 14 -25v-190q0 -23 -43 -23h-92q-39 0 -78 12q-38 12 -74 32q-33 19 -64 45t-51 52q-36 -42 -83 -69q-46 -27 -92 -43q-49 -18 -89 -23q-44 -6 -76 -6h-274z" />
    <glyph glyph-name="uniFB6B" unicode="&#x6a4;" horiz-adv-x="2320" arabic-form="final" 
d="M1579 1780h236v-234h-236v234zM1753 1464h236v-233h-236v233zM1405 1464h233v-233h-233v233zM2320 242q18 0 30 -4q13 -4 13 -25v-190q0 -23 -43 -23h-1865q-87 0 -162 29q-74 29 -128 87t-84 147t-30 210v137h258v-108q0 -62 9 -110q9 -47 33 -82q23 -33 64 -51
q38 -17 99 -17h735v8q-48 45 -81 111t-33 141q0 124 40 216q42 96 111 158q71 64 169 97t212 33q111 0 213 -31q97 -29 171 -94q73 -64 115 -158t42 -221q0 -70 -35 -140q-33 -66 -82 -112v-8h229zM1667 229q118 0 178 76q60 77 60 197q0 54 -16 107q-15 51 -45 88
q-32 40 -74 60q-43 21 -103 21q-59 0 -103 -21q-42 -20 -74 -60q-30 -37 -45 -88q-15 -50 -15 -107q0 -122 59 -197q60 -76 178 -76z" />
    <glyph glyph-name="uniFB6C" unicode="&#x6a4;" horiz-adv-x="1298" arabic-form="initial" 
d="M578 1780h235v-234h-235v234zM752 1464h235v-233h-235v233zM403 1464h234v-233h-234v233zM440 502q0 -120 60 -197q60 -76 178 -76q57 0 103 22q45 22 74 58q30 38 45 86q15 50 15 107q0 58 -15 107q-15 51 -45 88q-32 40 -74 60q-43 21 -103 21t-104 -21
q-41 -20 -73 -60q-30 -37 -45 -88q-16 -53 -16 -107zM260 242v8q-48 45 -81 111q-34 68 -34 141q0 124 40 216q41 95 112 158q71 64 169 97t212 33q111 0 213 -31q97 -29 171 -94q73 -64 115 -158q42 -95 42 -221t-42 -221q-41 -92 -115 -157q-72 -63 -171 -93
q-102 -31 -213 -31h-678q-43 0 -43 23v190q0 21 13 25q12 4 30 4h260z" />
    <glyph glyph-name="uniFB6D" unicode="&#x6a4;" horiz-adv-x="1318" arabic-form="medial" 
d="M516 1780h236v-234h-236v234zM690 1464h236v-233h-236v233zM342 1464h233v-233h-233v233zM0 0q-43 0 -43 23v190q0 21 13 25q12 4 30 4h233v8q-46 43 -80 111t-34 141q0 124 40 216q42 96 111 158q71 64 169 97q97 33 212 33q111 0 213 -31q97 -29 171 -94
q73 -64 115 -158q42 -95 42 -221q0 -70 -35 -140q-33 -66 -82 -112v-8h244q18 0 30 -4q13 -4 13 -25v-190q0 -23 -43 -23h-1319zM651 229q118 0 178 76q60 77 60 197q0 54 -16 107q-15 51 -45 88q-32 40 -73 60q-43 21 -104 21q-59 0 -103 -21q-42 -20 -74 -60
q-30 -37 -45 -88q-15 -49 -15 -107q0 -122 59 -197q60 -76 178 -76z" />
    <glyph glyph-name="uniFB7B" unicode="&#x686;" horiz-adv-x="1560" arabic-form="final" 
d="M727 -78h154v-151h-154v151zM502 -78h151v-151h-151v151zM614 -283h154v-153h-154v153zM328 -225q0 -78 19 -134q18 -52 67 -128h-277q-42 53 -68 116q-28 68 -28 152q0 95 30 177q30 83 90 146q61 64 153 101t221 37h454v247q0 149 -81 219q-80 70 -216 70
q-63 0 -110 -20q-48 -20 -85 -56q-37 -35 -59 -78t-30 -92h-263q6 100 51 190q43 86 115 149t168 99t211 36q148 0 260 -47q115 -48 185 -124q73 -79 109 -186t36 -225q0 -54 19 -88q18 -33 52 -55q32 -21 70 -30q39 -9 76 -9h64q17 0 29 -4q14 -5 14 -25v-190
q0 -23 -43 -23h-64q-29 0 -60 9t-62 26q-29 16 -53 40t-36 54h-8q-5 -26 -16 -61q-12 -40 -33 -68h-651q-134 0 -192 -63q-58 -62 -58 -162z" />
    <glyph glyph-name="uniFB7C" unicode="&#x686;" horiz-adv-x="1513" arabic-form="initial" 
d="M604 -518h236v-234h-236v234zM778 -203h236v-233h-236v233zM430 -203h234v-233h-234v233zM-45 45v152q0 18 13 31q14 14 32 14h1102q-2 12 -7.5 35t-7.5 34q-2 9 -6 32.5t-7 36.5q-5 25 -11 75q-22 149 -117 236t-229 87q-62 0 -119 -21q-55 -20 -103 -56
q-49 -37 -77 -78q-32 -48 -39 -91h-262q6 103 57 190q50 84 134 149q81 62 189 99q105 36 220 36q151 0 262 -43q113 -44 191 -119q79 -76 125 -180q47 -106 59 -228q5 -43 12 -105t8 -76q8 -59 17 -113q5 -29 14 -74q8 -38 16 -68h-1421q-19 0 -32 13t-13 32z" />
    <glyph glyph-name="uniFB7D" unicode="&#x686;" horiz-adv-x="1611" arabic-form="medial" 
d="M575 -518h236v-234h-236v234zM750 -203h235v-233h-235v233zM401 -203h234v-233h-234v233zM0 0q-43 0 -43 23v190q0 21 13 25q12 4 30 4h1061v247q0 74 -30 128q-31 56 -79 91t-111 53q-60 17 -130 17q-64 0 -121 -20q-60 -21 -107 -56q-49 -36 -79 -78q-31 -43 -39 -92
h-263q6 100 60 190q51 84 137 149q84 63 189 99t221 36q148 0 269 -50q122 -51 203 -134q85 -88 127 -195q44 -112 44 -234q0 -50 20 -79t51 -46q30 -16 70 -21q43 -5 76 -5h43q17 0 29 -4q14 -5 14 -25v-190q0 -23 -43 -23h-43q-29 0 -61 9q-29 8 -61 26q-29 16 -53 40
t-36 54h-8q-3 -16 -17 -61q-12 -40 -33 -68h-1300z" />
    <glyph glyph-name="uniFB89" unicode="&#x688;" horiz-adv-x="1255" arabic-form="final" 
d="M528 1462q80 0 116 -44t36 -109v-107h-442v94h47v285h112v-190h9q28 30 57 50q30 21 65 21zM567 1296v13q0 29 -15 45t-38 16q-43 0 -69 -25t-44 -49h166zM1255 242q18 0 30 -4q13 -4 13 -25v-190q0 -23 -43 -23h-43q-28 0 -60 9q-29 8 -61 26q-31 17 -54 40
q-24 24 -36 54h-8q-5 -26 -16 -61q-12 -40 -33 -68h-799v242h557v164q0 73 -18 136q-18 62 -52 107q-36 47 -81 70q-47 24 -105 24h-210v228h210q111 0 212 -32t175 -96t118 -164t44 -239v-41q1 -49 23 -80q21 -30 51 -48q27 -16 69 -23q38 -6 74 -6h43z" />
    <glyph glyph-name="uniFB8B" unicode="&#x698;" horiz-adv-x="847" arabic-form="final" 
d="M338 1780h235v-234h-235v234zM512 1464h236v-233h-236v233zM164 1464h233v-233h-233v233zM848 242q18 0 30 -4q13 -4 13 -25v-190q0 -23 -43 -23h-43q-29 0 -61 9q-29 8 -61 26q-30 16 -52 40q-23 25 -35 54h-8v-96q0 -115 -20 -212q-20 -95 -63 -164t-118 -107
q-73 -37 -184 -37q-44 0 -95 8q-50 8 -88 24v211q24 -16 54 -21q32 -5 63 -5q89 0 123 74q35 76 35 229v839h293v-462q0 -54 19 -86q20 -35 51 -52q31 -18 71 -24q39 -6 76 -6h43z" />
    <glyph glyph-name="uniFB8D" unicode="&#x691;" horiz-adv-x="847" arabic-form="final" 
d="M508 1462q80 0 116 -44q35 -42 35 -109v-107h-442v94h47v285h113v-190h8q28 30 57 50q30 21 66 21zM547 1296v13q0 27 -16 45q-15 16 -37 16q-43 0 -69 -25t-44 -49h166zM848 242q18 0 30 -4q13 -4 13 -25v-190q0 -23 -43 -23h-43q-29 0 -61 9q-29 8 -61 26
q-30 16 -52 40q-23 25 -35 54h-8v-96q0 -115 -20 -212q-20 -95 -63 -164t-118 -107q-73 -37 -184 -37q-44 0 -95 8q-50 8 -88 24v211q24 -16 54 -21q32 -5 63 -5q89 0 123 74q35 76 35 229v839h293v-462q0 -54 19 -86q20 -35 51 -52q31 -18 71 -24q39 -6 76 -6h43z" />
    <glyph glyph-name="uniFB8F" unicode="&#x6a9;" horiz-adv-x="2027" arabic-form="final" 
d="M2028 242q17 0 29 -4q14 -5 14 -25v-190q0 -23 -43 -23h-43q-29 0 -61 9q-29 8 -61 26q-31 17 -54 40q-22 22 -35 54h-9q-5 -26 -16 -61q-12 -40 -33 -68h-1263q-87 0 -162 29t-127 87q-54 60 -83 146q-30 88 -30 209v139h256v-106q0 -125 43 -193q44 -69 162 -69h965
v190q0 162 -76 237q-75 74 -211 74h-512v228l491 493h310l-488 -493h199q292 0 435 -134q142 -133 142 -391q0 -51 21 -90q21 -38 51 -64t70 -38q39 -12 76 -12h43z" />
    <glyph glyph-name="uniFB90" unicode="&#x6a9;" horiz-adv-x="1361" arabic-form="initial" 
d="M979 242v190q0 163 -64 238q-63 73 -182 73h-643v228l492 493h309l-485 -493h325q285 0 412 -133t127 -385v-453h-1272q-43 0 -43 23v190q0 21 13 25q12 4 30 4h981z" />
    <glyph glyph-name="uniFB91" unicode="&#x6a9;" horiz-adv-x="1531" arabic-form="medial" 
d="M981 242v190q0 164 -63 238q-63 73 -183 73h-643v228l492 493h309l-485 -493h325q285 0 412 -133t127 -385v-33q1 -49 22 -83q20 -32 52 -55q32 -22 68 -31q38 -9 75 -9h43q18 0 30 -4q13 -4 13 -25v-190q0 -23 -43 -23h-43q-29 0 -61 9q-29 8 -61 26q-29 16 -53 40
t-36 54h-8q-3 -16 -17 -61q-13 -42 -32 -68h-1221q-43 0 -43 23v190q0 21 13 25q12 4 30 4h981z" />
    <glyph glyph-name="uniFB93" unicode="&#x6af;" horiz-adv-x="2027" arabic-form="final" 
d="M514 971h-219l489 493h224zM2028 242q17 0 29 -4q14 -5 14 -25v-190q0 -23 -43 -23h-43q-29 0 -61 9q-29 8 -61 26q-31 17 -54 40q-22 22 -35 54h-9q-5 -26 -16 -61q-12 -40 -33 -68h-1263q-87 0 -162 29t-127 87q-54 60 -83 146q-30 88 -30 209v139h256v-106
q0 -125 43 -193q44 -69 162 -69h965v190q0 162 -76 237q-75 74 -211 74h-512v228l491 493h310l-488 -493h199q292 0 435 -134q142 -133 142 -391q0 -51 21 -90q21 -38 51 -64t70 -38q39 -12 76 -12h43z" />
    <glyph glyph-name="uniFB94" unicode="&#x6af;" horiz-adv-x="1693" arabic-form="initial" 
d="M258 954h-219l487 510h224zM1311 242v190q0 163 -64 238q-63 73 -182 73h-643v228l491 493h310l-486 -493h326q285 0 412 -133t127 -385v-453h-1604q-43 0 -43 23v190q0 21 13 25q12 4 30 4h1313z" />
    <glyph glyph-name="uniFB95" unicode="&#x6af;" horiz-adv-x="1861" arabic-form="medial" 
d="M1311 242v190q0 163 -64 238q-63 73 -182 73h-643v228l491 493h310l-486 -493h326q285 0 412 -133t127 -385v-33q1 -49 22 -83q20 -34 51 -55q31 -22 69 -31t75 -9h43q17 0 29 -4q14 -5 14 -25v-190q0 -23 -43 -23h-43q-29 0 -61 9q-29 8 -61 26q-29 16 -53 40t-36 54h-9
q-5 -26 -16 -61q-12 -40 -33 -68h-1550q-43 0 -43 23v190q0 21 13 25q12 4 30 4h1311zM256 954h-219l487 510h224z" />
    <glyph glyph-name="uniFB9F" unicode="&#x6ba;" horiz-adv-x="1900" arabic-form="final" 
d="M852 -487q-244 0 -395 68q-155 70 -241 187q-87 119 -120 276q-33 159 -33 339v190h277v-190q0 -169 30 -288q30 -117 92 -193q62 -75 159 -110q95 -34 227 -34q130 0 223 34q95 35 157 110q62 76 92 193q30 119 30 288v233h292v-174q0 -105 51 -153q50 -47 124 -47h84
q17 0 29 -4q14 -5 14 -25v-190q0 -23 -43 -23h-72q-67 0 -119 27q-55 27 -82 75h-8q-23 -131 -72 -239q-51 -111 -140 -187t-227 -120q-135 -43 -329 -43z" />
    <glyph glyph-name="uniFBA5" unicode="&#x6c0;" horiz-adv-x="1251" arabic-form="final" 
d="M420 1376h65v6q-28 34 -28 80q0 72 48 111t126 39q28 0 60 -8q27 -7 53 -26q24 -18 39 -45q17 -30 18 -67h-111q-1 28 -18 43q-16 15 -41 15q-22 0 -39 -19t-17 -53q0 -33 16 -55q15 -21 52 -21h162v-94h-385v94zM1251 242q18 0 30 -4q13 -4 13 -25v-190q0 -23 -43 -23
h-100q-105 0 -181 57q-78 58 -112 156q-47 -66 -128 -110q-82 -44 -179 -44q-93 0 -181 31q-86 30 -149 87q-65 58 -101 137q-38 82 -38 184q0 100 30 187q31 89 91 151q62 63 154 99q93 36 218 36h474v-516q0 -120 37 -166q38 -47 128 -47h37zM565 291q39 0 77 12
q39 12 67 39q30 28 47 70q18 44 18 102v223h-199q-108 0 -162 -64q-55 -66 -55 -175q0 -104 54 -156q52 -51 153 -51z" />
    <glyph glyph-name="uniFBA7" unicode="&#x6c1;" horiz-adv-x="1251" arabic-form="final" 
d="M1251 242q18 0 30 -4q13 -4 13 -25v-190q0 -23 -43 -23h-100q-78 0 -149 23q-68 22 -118 63q-51 42 -80 100q-30 60 -30 133v406h-199q-61 0 -101 -20q-42 -21 -67 -58t-37 -85t-12 -103v-279h-276v283q0 98 30 188q30 91 91 159q63 70 154 110q94 41 218 41h474v-506
q0 -120 37 -166q38 -47 128 -47h37z" />
    <glyph glyph-name="uniFBA8" unicode="&#x6c1;" horiz-adv-x="765" arabic-form="initial" 
d="M0 0q-43 0 -43 23v190q0 21 13 25q12 4 30 4h352v630h291v-872h-213v-176q0 -34 4 -53q4 -21 16 -31q11 -10 30 -14q22 -5 52 -5h70v-155h-70q-146 0 -223 54q-76 54 -76 204v106q0 16 3 70h-236z" />
    <glyph glyph-name="uniFBA9" unicode="&#x6c1;" horiz-adv-x="1640" arabic-form="medial" 
d="M100 406q0 80 27 141t71 105t104 71q58 26 128 37q62 109 169 178q106 68 253 68q144 0 245 -40t164 -115q62 -74 91 -180q28 -103 28 -237v-14q1 -48 23 -83q20 -34 51 -55q31 -22 69 -31q37 -9 74 -9h43q18 0 30 -4q13 -4 13 -25v-190q0 -23 -43 -23h-43q-29 0 -60 9
q-29 8 -61 26q-31 17 -54 40q-24 24 -36 54h-8q-5 -26 -16 -61q-12 -40 -33 -68h-1329q-43 0 -43 23v190q0 21 13 25q12 4 30 4h133q-33 72 -33 164zM852 788q-44 0 -93 -21t-83 -73q64 -44 102 -113q39 -71 39 -175q0 -94 -35 -164h308v192q0 190 -57 272t-181 82zM610 406
q0 91 -41 135q-40 43 -110 43q-71 0 -111 -43q-41 -44 -41 -135q0 -92 41 -138q41 -45 111 -45q69 0 110 45q41 46 41 138z" />
    <glyph glyph-name="uniFBAB" unicode="&#x6be;" horiz-adv-x="2027" arabic-form="final" 
d="M487 406q0 80 27 141t71 105t104 71q58 26 128 37q62 109 169 178q106 68 253 68q144 0 245 -40t164 -115q62 -74 91 -180q28 -103 28 -237v-14q1 -48 23 -83q20 -34 51 -55q31 -22 69 -31t75 -9h43q17 0 29 -4q14 -5 14 -25v-190q0 -23 -43 -23h-43q-29 0 -61 9
q-29 8 -61 26q-31 17 -54 40q-22 22 -35 54h-9q-5 -26 -16 -61q-12 -40 -33 -68h-1227q-84 0 -120 -31q-35 -30 -35 -110v-27h-293v39q0 191 110 281q109 90 287 90h82q-33 72 -33 164zM1477 434q0 190 -57 272t-181 82q-43 0 -93 -21q-49 -21 -83 -73q64 -44 102 -113
q39 -71 39 -175q0 -94 -35 -164h308v192zM997 406q0 91 -41 135q-40 43 -110 43q-71 0 -111 -43q-41 -44 -41 -135q0 -92 41 -138q41 -45 111 -45q69 0 110 45q41 46 41 138z" />
    <glyph glyph-name="uniFBAC" unicode="&#x6be;" horiz-adv-x="1470" arabic-form="initial" 
d="M-2 0q-43 0 -43 23v190q0 21 13 25q12 4 30 4h133q-33 72 -33 164q0 80 27 141t71 105t104 71q58 26 128 37q62 109 169 178q106 68 253 68q144 0 245 -40q100 -40 163 -115q64 -76 92 -180q28 -103 28 -237v-434h-1380zM850 788q-44 0 -93 -21t-83 -73q64 -44 102 -113
q39 -71 39 -175q0 -94 -35 -164h307v192q0 191 -56 272q-57 82 -181 82zM608 406q0 91 -41 134q-41 42 -110 42q-71 0 -111 -42q-41 -43 -41 -134q0 -92 41 -138q40 -45 111 -45q69 0 110 45q41 46 41 138z" />
    <glyph glyph-name="uniFBAD" unicode="&#x6be;" horiz-adv-x="1640" arabic-form="medial" 
d="M100 406q0 80 27 141t71 105t104 71q58 26 128 37q62 109 169 178q106 68 253 68q144 0 245 -40t164 -115q62 -74 91 -180q28 -103 28 -237v-14q1 -48 23 -83q20 -34 51 -55q31 -22 69 -31q37 -9 74 -9h43q18 0 30 -4q13 -4 13 -25v-190q0 -23 -43 -23h-43q-29 0 -60 9
q-29 8 -61 26q-31 17 -54 40q-24 24 -36 54h-8q-5 -26 -16 -61q-12 -40 -33 -68h-1329q-43 0 -43 23v190q0 21 13 25q12 4 30 4h133q-33 72 -33 164zM852 788q-44 0 -93 -21t-83 -73q64 -44 102 -113q39 -71 39 -175q0 -94 -35 -164h308v192q0 190 -57 272t-181 82zM610 406
q0 91 -41 135q-40 43 -110 43q-71 0 -111 -43q-41 -44 -41 -135q0 -92 41 -138q41 -45 111 -45q69 0 110 45q41 46 41 138z" />
    <glyph glyph-name="uniFBAF" unicode="&#x6d2;" horiz-adv-x="1849" arabic-form="final" 
d="M961 0h-332q-134 0 -211 -75q-76 -75 -76 -236v-174h965q117 0 161 69q43 68 43 193v108h256v-139q0 -123 -29 -209t-83 -146q-52 -58 -127 -87t-162 -29h-1315v401q0 270 139 410q139 141 439 141h332v-227z" />
    <glyph glyph-name="uniFBB1" unicode="&#x6d3;" horiz-adv-x="1849" arabic-form="final" 
d="M578 530h65v7q-29 35 -29 79q0 71 49 111q48 39 125 39q29 0 61 -8q27 -7 53 -26q24 -18 39 -45q16 -28 17 -66h-110q-1 27 -19 43q-15 14 -41 14q-21 0 -38 -19t-17 -53q0 -33 16 -55q15 -21 52 -21h162v-94h-385v94zM961 0h-332q-134 0 -211 -75q-76 -75 -76 -236v-174
h965q117 0 161 69q43 68 43 193v108h256v-139q0 -123 -29 -209t-83 -146q-52 -58 -127 -87t-162 -29h-1315v401q0 270 139 410q139 141 439 141h332v-227z" />
    <glyph glyph-name="uniFBE8" unicode="&#x649;" horiz-adv-x="765" arabic-form="initial" 
d="M0 0q-43 0 -43 23v190q0 21 13 25q12 4 30 4h352v630h291v-872h-643z" />
    <glyph glyph-name="uniFBE9" unicode="&#x649;" horiz-adv-x="972" arabic-form="medial" 
d="M0 0q-43 0 -43 23v190q0 21 13 25q12 4 30 4h274q23 0 45 7q28 9 47 25q18 15 35 50q15 30 15 77v471h291v-430q0 -54 15 -91t40 -62q24 -24 56 -36q29 -11 63 -11h92q17 0 29 -4q14 -5 14 -25v-190q0 -23 -43 -23h-92q-39 0 -78 12q-38 12 -74 32q-33 19 -64 45t-51 52
q-36 -42 -83 -69q-46 -27 -92 -43q-49 -18 -89 -23q-44 -6 -76 -6h-274z" />
    <glyph glyph-name="uniFBFD" unicode="&#x6cc;" horiz-adv-x="1574" arabic-form="final" 
d="M844 -569q-225 0 -375 57t-239 161q-90 105 -127 250q-39 151 -40 324h252q1 -157 36 -262q34 -104 101 -169q66 -64 164 -91q99 -27 232 -27q94 0 180 14q83 14 140 40q60 28 92 67t32 96q0 13 -6 31t-18 36t-30 30t-38 12q-44 0 -105 16q-60 16 -122 56v233
q21 -13 66 -26q53 -15 89 -21q44 -7 93 -12q40 -4 75 -4h279q18 0 30 -4q13 -4 13 -25v-190q0 -23 -43 -23h-111q28 -30 47 -81q19 -52 19 -91q0 -71 -47 -142t-135 -128q-93 -60 -215 -93q-126 -34 -289 -34z" />
    <glyph glyph-name="uniFBFE" unicode="&#x6cc;" horiz-adv-x="765" arabic-form="initial" 
d="M362 -201h236v-233h-236v233zM14 -201h234v-233h-234v233zM0 0q-43 0 -43 23v190q0 21 13 25q12 4 30 4h352v630h291v-872h-643z" />
    <glyph glyph-name="uniFBFF" unicode="&#x6cc;" horiz-adv-x="972" arabic-form="medial" 
d="M397 -201h236v-233h-236v233zM49 -201h234v-233h-234v233zM0 0q-43 0 -43 23v190q0 21 13 25q12 4 30 4h274q23 0 45 7q28 9 47 25q18 15 35 50q15 30 15 77v471h291v-430q0 -54 15 -91t40 -62q24 -24 56 -36q29 -11 63 -11h92q17 0 29 -4q14 -5 14 -25v-190
q0 -23 -43 -23h-92q-39 0 -78 12q-38 12 -74 32q-33 19 -64 45t-51 52q-36 -42 -83 -69q-46 -27 -92 -43q-49 -18 -89 -23q-44 -6 -76 -6h-274z" />
    <glyph glyph-name="uniFC31" unicode="&#xfc31;" horiz-adv-x="2605" arabic-form="isolated" 
d="M1530 -172q0 -71 -47 -142t-135 -128q-93 -60 -215 -93q-126 -34 -289 -34q-225 0 -375 57t-239 161q-90 105 -127 250q-39 151 -40 324h252q1 -157 36 -262q34 -104 101 -169q66 -64 164 -91q99 -27 232 -27q94 0 180 14q83 14 140 40q60 28 92 67t32 96q0 13 -6 31
t-18 36t-30 30t-38 12q-44 0 -105 16q-60 16 -122 56v233q21 -13 66 -26q53 -15 89 -21q44 -7 93 -12q40 -4 75 -4h269v8q-48 45 -81 111q-34 68 -34 141q0 124 40 216q41 95 112 158q72 65 168 97q98 33 212 33q111 0 213 -31q97 -29 171 -94q73 -64 115 -158t42 -221
q0 -126 -42 -221q-41 -92 -115 -157q-72 -63 -171 -93q-102 -31 -213 -31h-518q28 -30 47 -81q19 -52 19 -91zM1745 502q0 -122 59 -197q60 -76 178 -76q58 0 104 22q45 22 74 58q30 38 45 86q15 49 15 107t-15 107q-15 51 -45 88q-32 40 -74 60q-44 21 -104 21t-103 -21
q-42 -20 -74 -60q-30 -37 -45 -88q-15 -50 -15 -107zM1839 1466h291v-239h-291v239z" />
    <glyph glyph-name="uniFC32" unicode="&#xfc32;" horiz-adv-x="2605" arabic-form="isolated" 
d="M1530 -172q0 -71 -47 -142t-135 -128q-93 -60 -215 -93q-126 -34 -289 -34q-225 0 -375 57t-239 161q-90 105 -127 250q-39 151 -40 324h252q1 -157 36 -262q34 -104 101 -169q66 -64 164 -91q99 -27 232 -27q94 0 180 14q83 14 140 40q60 28 92 67t32 96q0 13 -6 31
t-18 36t-30 30t-38 12q-44 0 -105 16q-60 16 -122 56v233q21 -13 66 -26q53 -15 89 -21q44 -7 93 -12q40 -4 75 -4h269v8q-48 45 -81 111q-34 68 -34 141q0 124 40 216q41 95 112 158q72 65 168 97q98 33 212 33q111 0 213 -31q97 -29 171 -94q73 -64 115 -158t42 -221
q0 -126 -42 -221q-41 -92 -115 -157q-72 -63 -171 -93q-102 -31 -213 -31h-518q28 -30 47 -81q19 -52 19 -91zM1745 502q0 -122 59 -197q60 -76 178 -76q58 0 104 22q45 22 74 58q30 38 45 86q15 49 15 107t-15 107q-15 51 -45 88q-32 40 -74 60q-44 21 -104 21t-103 -21
q-42 -20 -74 -60q-30 -37 -45 -88q-15 -50 -15 -107zM1839 1466h291v-239h-291v239zM872 -727h236v-234h-236v234zM524 -727h234v-234h-234v234z" />
    <glyph glyph-name="uniFC35" unicode="&#xfc35;" horiz-adv-x="2605" arabic-form="isolated" 
d="M1530 -172q0 -71 -47 -142t-135 -128q-93 -60 -215 -93q-126 -34 -289 -34q-225 0 -375 57t-239 161q-90 105 -127 250q-39 151 -40 324h252q1 -157 36 -262q34 -104 101 -169q66 -64 164 -91q99 -27 232 -27q94 0 180 14q83 14 140 40q60 28 92 67t32 96q0 13 -6 31
t-18 36t-30 30t-38 12q-44 0 -105 16q-60 16 -122 56v233q21 -13 66 -26q53 -15 89 -21q44 -7 93 -12q40 -4 75 -4h269v8q-48 45 -81 111q-34 68 -34 141q0 124 40 216q41 95 112 158q72 65 168 97q98 33 212 33q111 0 213 -31q97 -29 171 -94q73 -64 115 -158t42 -221
q0 -126 -42 -221q-41 -92 -115 -157q-72 -63 -171 -93q-102 -31 -213 -31h-518q28 -30 47 -81q19 -52 19 -91zM1745 502q0 -122 59 -197q60 -76 178 -76q58 0 104 22q45 22 74 58q30 38 45 86q15 49 15 107t-15 107q-15 51 -45 88q-32 40 -74 60q-44 21 -104 21t-103 -21
q-42 -20 -74 -60q-30 -37 -45 -88q-15 -50 -15 -107zM2046 1464h235v-233h-235v233zM1698 1464h233v-233h-233v233z" />
    <glyph glyph-name="uniFC36" unicode="&#xfc36;" horiz-adv-x="2605" arabic-form="isolated" 
d="M1530 -172q0 -71 -47 -142t-135 -128q-93 -60 -215 -93q-126 -34 -289 -34q-225 0 -375 57t-239 161q-90 105 -127 250q-39 151 -40 324h252q1 -157 36 -262q34 -104 101 -169q66 -64 164 -91q99 -27 232 -27q94 0 180 14q83 14 140 40q60 28 92 67t32 96q0 13 -6 31
t-18 36t-30 30t-38 12q-44 0 -105 16q-60 16 -122 56v233q21 -13 66 -26q53 -15 89 -21q44 -7 93 -12q40 -4 75 -4h269v8q-48 45 -81 111q-34 68 -34 141q0 124 40 216q41 95 112 158q72 65 168 97q98 33 212 33q111 0 213 -31q97 -29 171 -94q73 -64 115 -158t42 -221
q0 -126 -42 -221q-41 -92 -115 -157q-72 -63 -171 -93q-102 -31 -213 -31h-518q28 -30 47 -81q19 -52 19 -91zM1745 502q0 -122 59 -197q60 -76 178 -76q58 0 104 22q45 22 74 58q30 38 45 86q15 49 15 107t-15 107q-15 51 -45 88q-32 40 -74 60q-44 21 -104 21t-103 -21
q-42 -20 -74 -60q-30 -37 -45 -88q-15 -50 -15 -107zM2046 1464h235v-233h-235v233zM1698 1464h233v-233h-233v233zM872 -727h236v-234h-236v234zM524 -727h234v-234h-234v234z" />
    <glyph glyph-name="uniFC3D" unicode="&#xfc3d;" horiz-adv-x="2580" arabic-form="isolated" 
d="M1530 -172q0 -71 -47 -142t-135 -128q-93 -60 -215 -93q-126 -34 -289 -34q-225 0 -375 57t-239 161q-90 105 -127 250q-39 151 -40 324h252q1 -157 36 -262q34 -104 101 -169q66 -64 164 -91q99 -27 232 -27q94 0 180 14q83 14 140 40q60 28 92 67t32 96q0 13 -6 31
t-18 36t-30 30t-38 12q-44 0 -105 16q-60 16 -122 56v233q21 -13 66 -26q53 -15 89 -21q44 -7 93 -12q40 -4 75 -4h902v190q0 163 -64 238q-63 73 -182 73h-643v228l491 493h309l-485 -493h326q284 0 411 -133t127 -385v-453h-1024q28 -30 47 -81q19 -52 19 -91z" />
    <glyph glyph-name="uniFC3E" unicode="&#xfc3e;" horiz-adv-x="2580" arabic-form="isolated" 
d="M1530 -172q0 -71 -47 -142t-135 -128q-93 -60 -215 -93q-126 -34 -289 -34q-225 0 -375 57t-239 161q-90 105 -127 250q-39 151 -40 324h252q1 -157 36 -262q34 -104 101 -169q66 -64 164 -91q99 -27 232 -27q94 0 180 14q83 14 140 40q60 28 92 67t32 96q0 13 -6 31
t-18 36t-30 30t-38 12q-44 0 -105 16q-60 16 -122 56v233q21 -13 66 -26q53 -15 89 -21q44 -7 93 -12q40 -4 75 -4h902v190q0 163 -64 238q-63 73 -182 73h-643v228l491 493h309l-485 -493h326q284 0 411 -133t127 -385v-453h-1024q28 -30 47 -81q19 -52 19 -91zM874 -727
h236v-234h-236v234zM526 -727h234v-234h-234v234z" />
    <glyph glyph-name="uniFC43" unicode="&#xfc43;" horiz-adv-x="1947" arabic-form="isolated" 
d="M1530 -172q0 -71 -47 -142t-135 -128q-93 -60 -215 -93q-126 -34 -289 -34q-225 0 -375 57t-239 161q-90 105 -127 250q-39 151 -40 324h252q1 -157 36 -262q34 -104 101 -169q66 -64 164 -91q99 -27 232 -27q94 0 180 14q83 14 140 40q60 28 92 67t32 96q0 13 -6 31
t-18 36t-30 30t-38 12q-44 0 -105 16q-60 16 -122 56v233q21 -13 66 -26q53 -15 89 -21q44 -7 93 -12q40 -4 75 -4h238v1222h291v-1464h-361q28 -30 47 -81q19 -52 19 -91z" />
    <glyph glyph-name="uniFC44" unicode="&#xfc44;" horiz-adv-x="1947" arabic-form="isolated" 
d="M1530 -172q0 -71 -47 -142t-135 -128q-93 -60 -215 -93q-126 -34 -289 -34q-225 0 -375 57t-239 161q-90 105 -127 250q-39 151 -40 324h252q1 -157 36 -262q34 -104 101 -169q66 -64 164 -91q99 -27 232 -27q94 0 180 14q83 14 140 40q60 28 92 67t32 96q0 13 -6 31
t-18 36t-30 30t-38 12q-44 0 -105 16q-60 16 -122 56v233q21 -13 66 -26q53 -15 89 -21q44 -7 93 -12q40 -4 75 -4h238v1222h291v-1464h-361q28 -30 47 -81q19 -52 19 -91zM893 -727h235v-234h-235v234zM545 -727h233v-234h-233v234z" />
    <glyph glyph-name="uniFC53" unicode="&#xfc53;" horiz-adv-x="2713" arabic-form="isolated" 
d="M1341 406q0 80 27 141t71 105t104 71q58 26 128 37q62 109 169 178q106 68 253 68q144 0 245 -40t164 -115q62 -74 91 -180q28 -103 28 -237v-434h-1157q28 -30 47 -81q19 -52 19 -91q0 -71 -47 -142t-135 -128q-93 -60 -215 -93q-126 -34 -289 -34q-225 0 -375 57
t-239 161q-90 105 -127 250q-39 151 -40 324h252q1 -157 36 -262q34 -104 101 -169q66 -64 164 -91q99 -27 232 -27q94 0 180 14q83 14 140 40q60 28 92 67t32 96q0 13 -6 31t-18 36t-30 30t-38 12q-44 0 -105 16q-60 16 -122 56v233q21 -13 66 -26q53 -15 89 -21
q44 -7 93 -12q40 -4 75 -4h78q-33 72 -33 164zM2093 788q-43 0 -93 -21q-49 -21 -83 -73q64 -44 102 -113q39 -71 39 -175q0 -94 -35 -164h308v192q0 190 -57 272t-181 82zM1851 406q0 91 -41 134q-40 42 -110 42t-111 -42q-41 -43 -41 -134q0 -92 41 -138q41 -45 111 -45
t110 45q41 46 41 138z" />
    <glyph glyph-name="uniFC54" unicode="&#xfc54;" horiz-adv-x="2713" arabic-form="isolated" 
d="M1341 406q0 80 27 141t71 105t104 71q58 26 128 37q62 109 169 178q106 68 253 68q144 0 245 -40t164 -115q62 -74 91 -180q28 -103 28 -237v-434h-1157q28 -30 47 -81q19 -52 19 -91q0 -71 -47 -142t-135 -128q-93 -60 -215 -93q-126 -34 -289 -34q-225 0 -375 57
t-239 161q-90 105 -127 250q-39 151 -40 324h252q1 -157 36 -262q34 -104 101 -169q66 -64 164 -91q99 -27 232 -27q94 0 180 14q83 14 140 40q60 28 92 67t32 96q0 13 -6 31t-18 36t-30 30t-38 12q-44 0 -105 16q-60 16 -122 56v233q21 -13 66 -26q53 -15 89 -21
q44 -7 93 -12q40 -4 75 -4h78q-33 72 -33 164zM2093 788q-43 0 -93 -21q-49 -21 -83 -73q64 -44 102 -113q39 -71 39 -175q0 -94 -35 -164h308v192q0 190 -57 272t-181 82zM1851 406q0 91 -41 134q-40 42 -110 42t-111 -42q-41 -43 -41 -134q0 -92 41 -138q41 -45 111 -45
t110 45q41 46 41 138zM807 -727h235v-234h-235v234zM459 -727h233v-234h-233v234z" />
    <glyph glyph-name="uni064C0651" unicode="&#xfc5e;" arabic-form="isolated" 
d="M-94 1860q35 0 64 16q30 17 53 41q-11 3 -32 12q-14 6 -34 24q-15 13 -28 35q-11 18 -11 46q0 54 34 79t77 25q47 0 81 -25q33 -24 33 -92q0 -40 -21 -79q-22 -40 -55 -72q-34 -32 -76 -52q-43 -20 -85 -20t-78 31q-35 30 -35 88h-33v55h52q18 0 30 -13q13 -15 13 -42
q0 -29 14 -43t37 -14zM-10 2030q0 -21 19 -39q21 -19 46 -25q17 34 17 57q0 54 -43 54q-19 0 -29 -15q-10 -14 -10 -32zM-125 1499q-35 0 -63 21q-29 21 -45 77l-23 89l84 22l20 -74q6 -25 18 -40t30 -15q20 0 34 14q15 15 15 37q0 8 -4 23q-1 4 -21 80l86 24l21 -76
q15 -51 49 -51q19 0 33 11t14 34q0 4 -1 7t-3 17q0 1 -7 31q-1 5 -6 22.5t-8 29.5l84 22q19 -71 27 -104q6 -24 6 -35q0 -50 -39 -80q-40 -31 -90 -31q-23 0 -47 13q-22 12 -39 41q0 -52 -36 -80q-37 -29 -89 -29z" />
    <glyph glyph-name="uni064D0651" unicode="&#xfc5f;" arabic-form="isolated" 
d="M-139 1886q-35 0 -64 21t-45 78l-22 88l84 22l20 -74q6 -25 18 -40t29 -15q21 0 35 14t14 37q0 8 -4 23l-7.5 30l-12.5 50l86 24l20 -76q15 -51 49 -51q18 0 33 12t15 33q0 5 -1 8q-3 9 -4 16q0 1 -7 31q-1 5 -5.5 22.5t-7.5 29.5l84 22q19 -71 27 -104q6 -24 6 -35
q0 -50 -39 -80t-90 -30q-24 0 -47 12q-22 12 -39 41q0 -51 -36 -80q-37 -29 -89 -29zM-184 1673l-27 99l416 110l24 -98zM-145 1520l-27 98l416 111l24 -99z" />
    <glyph glyph-name="uni064E0651" unicode="&#xfc60;" arabic-form="isolated" 
d="M-98 1507q-36 0 -64 21t-45 78l-22 88l84 22l20 -74q6 -26 17 -39q13 -16 30 -16q20 0 35 15q14 14 14 36q0 8 -4 23l-7.5 30l-12.5 50l86 24l20 -75q15 -52 49 -52q18 0 33 12t15 33q0 2 -2 8q-1 4 -3 16q0 1 -7 31q-1 5 -5.5 22.5t-7.5 29.5l84 22q19 -71 27 -104
q6 -24 6 -35q0 -50 -39 -80t-90 -30q-25 0 -47 12t-39 41q0 -52 -36 -80q-37 -29 -89 -29zM-219 1786l-27 98l416 111l25 -99z" />
    <glyph glyph-name="uni064F0651" unicode="&#xfc61;" arabic-form="isolated" 
d="M-141 1399q-37 0 -64 20q-29 21 -45 78l-22 88l84 23l20 -74q7 -27 17 -40q12 -15 30 -15q21 0 35 14t14 37q0 7 -4 22l-7.5 30l-12.5 50l86 25l20 -76q15 -51 49 -51q19 0 33 11t14 34q0 4 -1 7q-1 4 -3 16q0 1 -7 31q-1 5 -5.5 22.5t-7.5 29.5l84 23q14 -53 27 -105
q6 -24 6 -34q0 -50 -39 -80q-40 -31 -90 -31q-24 0 -47 12q-22 12 -39 41q0 -51 -36 -80q-35 -28 -89 -28zM-137 1772q42 0 78 20q35 20 65 51q-21 5 -40 16q-25 14 -42 29q-19 16 -34 43q-13 23 -13 58q0 65 41 97t96 32q57 0 100 -32q42 -32 42 -114q0 -49 -27 -98
q-26 -47 -69 -89t-94 -65q-53 -24 -103 -24v76zM-35 1982q0 -24 24 -48q23 -23 58 -29q21 41 21 71q0 66 -54 66q-24 0 -37 -19q-12 -18 -12 -41z" />
    <glyph glyph-name="uni06500651" unicode="&#xfc62;" arabic-form="isolated" 
d="M-125 1747q-36 0 -63 20q-28 21 -45 78l-23 88l84 23l20 -74q6 -25 18 -40t30 -15q20 0 34 14q15 15 15 37q0 8 -4 23q-8 29 -21 79l86 25l21 -76q15 -51 49 -51q19 0 33 11t14 34q0 4 -1 7t-3 17q0 4 -1 8t-3 10.5t-3 11.5t-6 23t-8 30l84 22q19 -71 27 -104
q6 -24 6 -35q0 -50 -39 -80q-40 -31 -90 -31q-23 0 -47 13q-23 12 -39 40q0 -50 -36 -79q-37 -29 -89 -29zM-176 1511l-27 99l416 110l25 -98z" />
    <glyph glyph-name="uni06510670" unicode="&#xfc63;" arabic-form="isolated" 
d="M-96 1556q-49 0 -87 26t-38 104v90h88v-76q0 -31 9 -49q10 -19 34 -19q21 1 37 17q14 14 14 51v78h90v-80q0 -34 15 -49t36 -15q22 0 33 18q10 17 10 46v78h88v-90q0 -82 -36 -105q-39 -25 -88 -25q-35 0 -64 18t-39 60q-12 -40 -40 -59q-29 -19 -62 -19zM-43 2079h90
v-238h-90v238z" />
    <glyph glyph-name="uniFC86" unicode="&#xfc86;" horiz-adv-x="2091" arabic-form="final" 
d="M1530 -172q0 -71 -47 -142t-135 -128q-93 -60 -215 -93q-126 -34 -289 -34q-225 0 -375 57t-239 161q-90 105 -127 250q-39 151 -40 324h252q1 -157 36 -262q34 -104 101 -169q66 -64 164 -91q99 -27 232 -27q94 0 180 14q83 14 140 40q60 28 92 67t32 96q0 13 -6 31
t-18 36t-30 30t-38 12q-44 0 -105 16q-60 16 -122 56v233q21 -13 66 -26q53 -15 89 -21q44 -7 93 -12q40 -4 75 -4h97q23 0 45 7q26 8 46 25q19 17 36 50q14 28 14 77v1063h291v-1022q0 -54 15 -91t40 -62q24 -24 56 -36q29 -11 63 -11h92q18 0 30 -4q13 -4 13 -25v-190
q0 -23 -43 -23h-92q-39 0 -78 12q-38 12 -74 32q-33 19 -64 45q-28 24 -50 52q-60 -66 -135 -96q-77 -31 -138 -41q27 -29 49 -83q21 -53 21 -93z" />
    <glyph glyph-name="uniFC87" unicode="&#xfc87;" horiz-adv-x="2091" arabic-form="final" 
d="M1530 -172q0 -71 -47 -142t-135 -128q-93 -60 -215 -93q-126 -34 -289 -34q-225 0 -375 57t-239 161q-90 105 -127 250q-39 151 -40 324h252q1 -157 36 -262q34 -104 101 -169q66 -64 164 -91q99 -27 232 -27q94 0 180 14q83 14 140 40q60 28 92 67t32 96q0 13 -6 31
t-18 36t-30 30t-38 12q-44 0 -105 16q-60 16 -122 56v233q21 -13 66 -26q53 -15 89 -21q44 -7 93 -12q40 -4 75 -4h97q23 0 45 7q26 8 46 25q19 17 36 50q14 28 14 77v1063h291v-1022q0 -54 15 -91t40 -62q24 -24 56 -36q29 -11 63 -11h92q18 0 30 -4q13 -4 13 -25v-190
q0 -23 -43 -23h-92q-39 0 -78 12q-38 12 -74 32q-33 19 -64 45q-28 24 -50 52q-60 -66 -135 -96q-77 -31 -138 -41q27 -29 49 -83q21 -53 21 -93zM844 -731h235v-234h-235v234zM496 -731h233v-234h-233v234z" />
    <glyph glyph-name="uniFDF2" unicode="&#xfdf2;" horiz-adv-x="3104" arabic-form="isolated" 
d="M2679 0v1464h291v-1464h-291zM1141 0q-109 0 -184 57q-74 56 -109 156q-47 -67 -123 -110q-77 -44 -174 -44t-182 30q-90 32 -153 86q-66 57 -105 136t-39 183q0 103 29 186q29 84 92 148t154 98q94 35 218 35h473v-506q0 -119 38 -166t128 -47h142q23 0 45 7q26 8 46 25
q19 17 36 50q14 28 14 77v1063h291v-1032q0 -51 15 -87q14 -34 41 -59q24 -23 56 -34q29 -10 62 -10h190v1222h291v-1464h-481q-39 0 -78 12q-38 12 -74 32q-33 19 -64 45q-28 24 -50 52q-36 -42 -83 -69q-44 -26 -93 -43q-49 -18 -89 -23q-43 -6 -75 -6h-205zM565 291
q39 0 75 12t63 39q30 30 45 70q16 42 16 102v213h-199q-109 0 -163 -61q-54 -62 -54 -172q0 -65 20 -105q19 -38 50 -61q30 -22 69 -30q36 -7 78 -7z" />
    <glyph glyph-name="uniFDFA" unicode="&#xfdfa;" horiz-adv-x="2164" arabic-form="isolated" 
d="M2083 895q0 -29 -33 -80q-29 -47 -63 -63q-90 -43 -238 -43q-31 0 -47 1q-24 2 -51 3q-50 -97 -78 -97q-8 0 -8 13q0 30 45 96q-85 33 -99 53q-80 -53 -102 -53q15 -291 51 -360q38 -75 172 -82l4 4q-43 30 -43 88q0 69 66 155q49 66 125 66q56 0 108 -35q50 -33 50 -63
q-54 18 -107 18q-72 0 -133 -29q-53 -29 -53 -55q0 -29 51 -80q52 -53 90 -59q39 5 139 37q103 33 137 51l-34 -76q-55 -29 -153 -57q-87 -25 -161 -40q-64 -13 -80 -13l2 2q-197 0 -243 149q-61 -133 -117 -133q-53 0 -137 90q-130 -115 -404 -115q-29 0 -77 5q-37 2 -66 6
q8 -68 18 -107q18 -72 48 -102q90 -90 360 -90q233 0 338 65q30 76 57 76q8 0 8 -16q0 -30 -24 -91q12 -26 55 -26q54 0 100 24q44 136 68 136q8 0 8 -23q0 -39 -20 -88q63 -27 90 -27q16 0 16 9q0 16 -16 77l35 74q24 -74 24 -106q0 -138 -90 -138q-47 0 -98 39
q-33 -53 -121 -53q-98 0 -98 53q-37 -28 -131 -49q-100 -22 -248 -22q-199 0 -293 57q-118 72 -123 258l-45 -66q-35 -51 -53 -53q24 -45 24 -84q0 -53 -32 -86q-16 -16 -43 -16q-39 0 -125 47q-27 -64 -86 -96q-16 -8 -49 -8q-31 -1 -44 -7l-22 -8q-12 0 -12 10q0 13 49 31
q28 11 50 23q5 3 15.5 8.5t14.5 7.5l69 53q-20 36 -20 82q0 44 37 84q37 43 69 43q8 0 13 -4q37 -20 59 -20q36 0 74 47l47 86q-79 24 -113 55q-59 51 -80 174h-4q-60 -102 -162 -102q-41 0 -79 16q-33 12 -33 25q0 51 88 118q86 65 174 91l-4 34l41 68q8 -114 19 -182
q13 -77 26 -107q26 -65 113 -92l-27 270l39 88l35 -368q108 -12 194 -12q216 0 363 81q24 78 39 78q8 0 8 -18q0 -14 -8 -51q74 -72 120 -72q56 0 86 88l-26 330h-10q-143 0 -170 151h-4q-6 -24 -16 -52t-13 -34q-22 -51 -55 -61l4 -4q20 2 28 2q115 0 115 -82
q0 -59 -51 -94q-172 -121 -328 -121q-93 0 -151 47t-58 135q0 64 33 137q-57 17 -78 88h-4q-33 -104 -113 -104q-96 0 -96 141v17l-55 -50q-15 -14 -80 -14q-100 0 -100 37q0 21 26 63q29 46 51 56l156 76v20l35 74l8 -246q5 -86 66 -86q32 0 59 20q30 23 35 48l-33 233
l37 80l57 -330q18 -43 68 -43q47 0 47 27q0 40 -33 151l-20 66q-14 44 -21 67l27 68q82 -255 82 -321q0 -42 -21 -91q-22 -57 -51 -57q-11 0 -18 6q-15 -45 -15 -80q0 -153 187 -153q147 0 291 98q4 4 4 6q0 10 -78 25l-125 20q-8 6 -8 17q0 21 35 65q123 51 131 109
q2 8 2 12v16q0 94 -11 217q-13 140 -30 256l34 115q50 -434 78 -524q38 -117 148 -135l-10 196l43 92l16 -286q32 12 59 28q34 20 64 45l61 -43q39 -24 80 -30q26 26 55 51t78 61q105 78 144 78q38 0 84 -28q53 -30 53 -68zM2064 4q0 -100 -79 -221q-86 -131 -183 -131
q-45 0 -121 33q-75 29 -75 47q0 8 10 8q12 0 55 -14q46 -17 72 -17h4q136 0 283 217l-15 45q-39 -53 -76 -53q-15 0 -26 7q-12 8 -23 20q-10 12 -16 26q-8 24 -8 37q0 45 30 105q34 63 58 63q26 0 65 -49q45 -55 45 -123zM1552 1079q0 -23 54 -51l-19 -49q-67 22 -67 82
q0 61 53 90q128 75 238 127q115 54 194 82l-18 -51q-61 -21 -238 -105q-197 -96 -197 -125zM975 915q-6 -137 -27 -149l-51 496l45 116zM1233 76l-53 -64l-99 72l-57 -74l-102 74l59 72l96 -72l56 68zM2025 860q0 16 -36 33q-33 18 -54 18q-46 0 -123 -49q-63 -39 -96 -69
q10 0 17 -1t24 -1q46 0 83 4q41 4 85 12q100 18 100 53zM1294 -248q0 -50 -4 -61q-12 -27 -51 -27q-18 0 -29 8q-29 -32 -61 -32q-14 0 -35 18q-16 16 -24 16q-17 0 -76 -34q-59 -37 -144 -37q-90 0 -90 16q0 14 66 14q44 0 60 1q23 1 34 3q27 6 72 33q62 39 82 39
q17 0 39 -16q23 -17 26 -17q31 0 37 35q4 27 23 27q8 0 8 -12v-9q0 -4 -2 -10q6 -8 22 -12q25 0 25 24q0 33 22 33zM1669 1444l-12 -45l-400 -197l9 51zM166 432q0 -20 63 -20q71 0 121 49l-4 78q-180 -72 -180 -107zM664 1362q0 -66 -43 -66q-24 0 -43 17q-39 -31 -62 -31
q-43 0 -43 55q0 41 6 56l13 12v-14q0 -62 34 -62q22 0 39 33l-4 47l19 29l8 -62q4 -33 31 -33t22 31l-6 45l14 21q15 -39 15 -78zM233 911q0 -20 52 -20q57 0 104 27l-2 79q-23 -12 -41 -18q-5 -2 -20 -7.5t-23 -8.5q-30 -14 -52 -29q-18 -12 -18 -23zM320 20q-29 0 -29 -24
q0 -26 53 -55q51 -31 80 -31q14 0 14 12q-8 41 -49 70q-37 28 -69 28zM1974 -2q27 0 31 22q-12 66 -53 66q-30 0 -41 -51q7 -37 63 -37z" />
    <glyph glyph-name="uniFE82" unicode="&#x622;" horiz-adv-x="561" arabic-form="final" 
d="M145 1821q37 0 72 -12q12 -4 35.5 -11.5t34.5 -11.5q33 -12 55 -17q27 -6 55 -6q44 0 62 15t18 43h78q0 -73 -44 -119q-43 -45 -103 -45q-30 0 -62 8t-59 18q-44 14 -65 21q-30 10 -66 10q-45 0 -62 -14q-18 -15 -18 -43h-78q0 73 44 119q44 45 103 45zM561 242
q18 0 30 -4q13 -4 13 -25v-190q0 -23 -43 -23h-438v1464h291v-1222h147z" />
    <glyph glyph-name="uniFE84" unicode="&#x623;" horiz-adv-x="561" arabic-form="final" 
d="M78 1700h65v6q-13 18 -20 37q-8 22 -8 43q0 71 48 110t126 39q28 0 60 -8q29 -7 53 -25t39 -45q17 -30 18 -67h-111q-1 28 -18 43q-15 14 -41 14q-23 0 -39 -18q-17 -19 -17 -53q0 -70 58 -76h172v-94h-385v94zM561 242q18 0 30 -4q13 -4 13 -25v-190q0 -23 -43 -23h-438
v1464h291v-1222h147z" />
    <glyph glyph-name="uniFE86" unicode="&#x624;" horiz-adv-x="1320" arabic-form="final" 
d="M94 1376h66v6q-29 35 -29 80q0 72 48 111t126 39q29 0 61 -8q28 -7 53 -26q24 -18 39 -45q15 -28 17 -67h-110q-1 27 -19 43q-17 15 -41 15q-22 0 -39 -19q-16 -17 -16 -53q0 -34 15 -55t52 -21h162v-94h-385v94zM426 -270q165 0 251 65t107 205h-254q-102 0 -185 33
t-141 93t-90 147q-32 88 -32 196q0 103 27 199q27 95 87 172q60 76 157 121t237 45t235 -43q98 -44 157 -123t87 -195q27 -114 27 -260q0 -51 -1 -74l-3 -69h229q18 0 30 -4q13 -4 13 -25v-190q0 -23 -43 -23h-254q-44 -243 -193 -365t-417 -122q-47 0 -78 4q-42 5 -60 10
q-14 4 -51 16v219q40 -16 78 -24q40 -8 80 -8zM373 473q0 -57 9 -100q9 -41 34 -73q23 -29 66 -44q39 -14 108 -14h217v151q0 93 -10 162q-10 70 -35 121q-23 48 -67 76q-40 26 -105 26q-63 0 -103 -25q-41 -25 -66 -69q-25 -43 -37 -98q-11 -51 -11 -113z" />
    <glyph glyph-name="uniFE88" unicode="&#x625;" horiz-adv-x="561" arabic-form="final" 
d="M88 -434h66v6q-15 21 -21 37q-8 22 -8 43q0 71 48 110t126 39q28 0 60 -8q31 -8 54 -25t39 -46q16 -28 17 -66h-111q-1 28 -18 43q-15 14 -41 14q-23 0 -39 -18q-16 -17 -16 -53q0 -32 13 -52q12 -19 44 -24h172v-94h-385v94zM561 242q18 0 30 -4q13 -4 13 -25v-190
q0 -23 -43 -23h-438v1464h291v-1222h147z" />
    <glyph glyph-name="uniFE8A" unicode="&#x626;" horiz-adv-x="1587" arabic-form="final" 
d="M66 510h65v6q-29 35 -29 80q0 71 49 111q47 38 125 38q29 0 61 -8q29 -7 53 -25t39 -45q15 -28 17 -67h-110q-1 27 -19 43q-15 14 -41 14q-22 0 -38 -18q-17 -19 -17 -53t16 -56q14 -20 52 -20h162v-94h-385v94zM856 -569q-225 0 -375 57q-149 56 -238 161
q-90 105 -127 250q-39 151 -40 324h252q1 -157 36 -262q34 -105 100 -169q65 -64 165 -91q99 -27 231 -27q94 0 180 14q84 14 141 40q58 27 91 67q33 41 33 96q0 10 -7 31q-6 18 -18 36t-30 30t-38 12q-44 0 -105 16q-60 16 -122 56v233q20 -13 67 -26q53 -15 89 -21
q46 -7 92 -12q40 -4 76 -4h278q18 0 30 -4q13 -4 13 -25v-190q0 -23 -43 -23h-110q28 -30 47 -81q18 -50 18 -91q0 -71 -47 -142t-135 -128q-93 -60 -215 -93q-126 -34 -289 -34z" />
    <glyph glyph-name="uniFE8B" unicode="&#x626;" horiz-adv-x="765" arabic-form="initial" 
d="M258 1163h66v6q-29 35 -29 80q0 72 48 111t126 39q28 0 60 -8q29 -7 54 -26q24 -18 39 -45q15 -28 17 -67h-111q-1 28 -18 43t-41 15q-22 0 -39 -19q-16 -17 -16 -53q0 -34 15 -55t52 -21h162v-94h-385v94zM0 0q-43 0 -43 23v190q0 21 13 25q12 4 30 4h352v630h291v-872
h-643z" />
    <glyph glyph-name="uniFE8C" unicode="&#x626;" horiz-adv-x="972" arabic-form="medial" 
d="M371 1163h65v6q-28 34 -28 80q0 72 48 111t126 39q28 0 60 -8q28 -7 53 -26q24 -18 39 -45q17 -30 18 -67h-111q-1 28 -18 43q-16 15 -41 15q-22 0 -39 -19t-17 -53q0 -33 16 -55q15 -21 52 -21h162v-94h-385v94zM0 0q-43 0 -43 23v190q0 21 13 25q12 4 30 4h274
q23 0 45 7q28 9 47 25q18 15 35 50q15 30 15 77v471h291v-430q0 -54 15 -91t40 -62q24 -24 56 -36q29 -11 63 -11h92q17 0 29 -4q14 -5 14 -25v-190q0 -23 -43 -23h-92q-39 0 -78 12q-38 12 -74 32q-33 19 -64 45t-51 52q-36 -42 -83 -69q-46 -27 -92 -43q-49 -18 -89 -23
q-44 -6 -76 -6h-274z" />
    <glyph glyph-name="uniFE8E" unicode="&#x627;" horiz-adv-x="561" arabic-form="final" 
d="M561 242q18 0 30 -4q13 -4 13 -25v-190q0 -23 -43 -23h-438v1464h291v-1222h147z" />
    <glyph glyph-name="uniFE90" unicode="&#x628;" horiz-adv-x="2174" arabic-form="final" 
d="M889 -195h291v-239h-291v239zM2175 242q18 0 30 -4q13 -4 13 -25v-190q0 -23 -43 -23h-92q-39 0 -78 12q-38 12 -74 32q-33 19 -64 45q-28 24 -50 52q-36 -42 -83 -69q-44 -26 -93 -43q-49 -18 -89 -23q-44 -6 -75 -6h-1022q-87 0 -162 29q-74 29 -128 87t-84 147
t-30 210v137h258v-108q0 -62 9 -110q9 -47 33 -82q23 -33 64 -51q38 -17 99 -17h963q23 0 45 7q26 8 46 25q19 17 36 50q14 28 14 77v471h291v-440q0 -48 15 -86q14 -35 41 -59q24 -21 56 -34q27 -11 62 -11h92z" />
    <glyph glyph-name="uniFE91" unicode="&#x628;" horiz-adv-x="765" arabic-form="initial" 
d="M352 -195h291v-239h-291v239zM0 0q-43 0 -43 23v190q0 21 13 25q12 4 30 4h352v630h291v-872h-643z" />
    <glyph glyph-name="uniFE92" unicode="&#x628;" horiz-adv-x="972" arabic-form="medial" 
d="M414 -195h291v-239h-291v239zM0 0q-43 0 -43 23v190q0 21 13 25q12 4 30 4h274q23 0 45 7q28 9 47 25q18 15 35 50q15 30 15 77v471h291v-430q0 -54 15 -91t40 -62q24 -24 56 -36q29 -11 63 -11h92q17 0 29 -4q14 -5 14 -25v-190q0 -23 -43 -23h-92q-39 0 -78 12
q-38 12 -74 32q-33 19 -64 45t-51 52q-36 -42 -83 -69q-46 -27 -92 -43q-49 -18 -89 -23q-44 -6 -76 -6h-274z" />
    <glyph glyph-name="uniFE94" unicode="&#x629;" horiz-adv-x="1251" arabic-form="final" 
d="M631 1464h235v-233h-235v233zM283 1464h233v-233h-233v233zM1251 242q18 0 30 -4q13 -4 13 -25v-190q0 -23 -43 -23h-100q-105 0 -181 57q-78 58 -112 156q-47 -66 -128 -110q-82 -44 -179 -44q-93 0 -181 31q-86 30 -149 87q-65 58 -101 137q-38 82 -38 184
q0 100 30 187q31 89 91 151q62 63 154 99q93 36 218 36h474v-516q0 -120 37 -166q38 -47 128 -47h37zM565 291q39 0 77 12q39 12 67 39q30 28 47 70q18 44 18 102v223h-199q-108 0 -162 -64q-55 -66 -55 -175q0 -104 54 -156q52 -51 153 -51z" />
    <glyph glyph-name="uniFE96" unicode="&#x62a;" horiz-adv-x="2174" arabic-form="final" 
d="M1006 1284h235v-233h-235v233zM657 1284h234v-233h-234v233zM2175 242q18 0 30 -4q13 -4 13 -25v-190q0 -23 -43 -23h-92q-39 0 -78 12q-38 12 -74 32q-33 19 -64 45q-28 24 -50 52q-36 -42 -83 -69q-44 -26 -93 -43q-49 -18 -89 -23q-44 -6 -75 -6h-1022q-87 0 -162 29
q-74 29 -128 87t-84 147t-30 210v137h258v-108q0 -62 9 -110q9 -47 33 -82q23 -33 64 -51q38 -17 99 -17h963q23 0 45 7q26 8 46 25q19 17 36 50q14 28 14 77v471h291v-440q0 -48 15 -86q14 -35 41 -59q24 -21 56 -34q27 -11 62 -11h92z" />
    <glyph glyph-name="uniFE97" unicode="&#x62a;" horiz-adv-x="765" arabic-form="initial" 
d="M406 1464h235v-233h-235v233zM57 1464h234v-233h-234v233zM0 0q-43 0 -43 23v190q0 21 13 25q12 4 30 4h352v630h291v-872h-643z" />
    <glyph glyph-name="uniFE98" unicode="&#x62a;" horiz-adv-x="972" arabic-form="medial" 
d="M602 1464h236v-233h-236v233zM254 1464h233v-233h-233v233zM0 0q-43 0 -43 23v190q0 21 13 25q12 4 30 4h274q23 0 45 7q28 9 47 25q18 15 35 50q15 30 15 77v471h291v-430q0 -54 15 -91t40 -62q24 -24 56 -36q29 -11 63 -11h92q17 0 29 -4q14 -5 14 -25v-190
q0 -23 -43 -23h-92q-39 0 -78 12q-38 12 -74 32q-33 19 -64 45t-51 52q-36 -42 -83 -69q-46 -27 -92 -43q-49 -18 -89 -23q-44 -6 -76 -6h-274z" />
    <glyph glyph-name="uniFE9A" unicode="&#x62b;" horiz-adv-x="2174" arabic-form="final" 
d="M850 1599h235v-233h-235v233zM1024 1284h236v-233h-236v233zM676 1284h233v-233h-233v233zM2175 242q18 0 30 -4q13 -4 13 -25v-190q0 -23 -43 -23h-92q-39 0 -78 12q-38 12 -74 32q-33 19 -64 45q-28 24 -50 52q-36 -42 -83 -69q-44 -26 -93 -43q-49 -18 -89 -23
q-44 -6 -75 -6h-1022q-87 0 -162 29q-74 29 -128 87t-84 147t-30 210v137h258v-108q0 -62 9 -110q9 -47 33 -82q23 -33 64 -51q38 -17 99 -17h963q23 0 45 7q26 8 46 25q19 17 36 50q14 28 14 77v471h291v-440q0 -48 15 -86q14 -35 41 -59q24 -21 56 -34q27 -11 62 -11h92z
" />
    <glyph glyph-name="uniFE9B" unicode="&#x62b;" horiz-adv-x="765" arabic-form="initial" 
d="M233 1780h236v-234h-236v234zM408 1464h235v-233h-235v233zM59 1464h234v-233h-234v233zM0 0q-43 0 -43 23v190q0 21 13 25q12 4 30 4h352v630h291v-872h-643z" />
    <glyph glyph-name="uniFE9C" unicode="&#x62b;" horiz-adv-x="972" arabic-form="medial" 
d="M446 1780h236v-234h-236v234zM621 1464h235v-233h-235v233zM272 1464h234v-233h-234v233zM0 0q-43 0 -43 23v190q0 21 13 25q12 4 30 4h274q23 0 45 7q28 9 47 25q18 15 35 50q15 30 15 77v471h291v-430q0 -54 15 -91t40 -62q24 -24 56 -36q29 -11 63 -11h92q17 0 29 -4
q14 -5 14 -25v-190q0 -23 -43 -23h-92q-39 0 -78 12q-38 12 -74 32q-33 19 -64 45t-51 52q-36 -42 -83 -69q-46 -27 -92 -43q-49 -18 -89 -23q-44 -6 -76 -6h-274z" />
    <glyph glyph-name="uniFE9E" unicode="&#x62c;" horiz-adv-x="1560" arabic-form="final" 
d="M582 -135h262v-215h-262v215zM328 -225q0 -78 19 -134q18 -52 67 -128h-277q-42 53 -68 116q-28 68 -28 152q0 95 30 177q30 83 90 146q61 64 153 101t221 37h454v247q0 149 -81 219q-80 70 -216 70q-63 0 -110 -20q-48 -20 -85 -56q-37 -35 -59 -78t-30 -92h-263
q6 100 51 190q43 86 115 149t168 99t211 36q148 0 260 -47q115 -48 185 -124q73 -79 109 -186t36 -225q0 -54 19 -88q18 -33 52 -55q32 -21 70 -30q39 -9 76 -9h64q17 0 29 -4q14 -5 14 -25v-190q0 -23 -43 -23h-64q-29 0 -60 9t-62 26q-29 16 -53 40t-36 54h-8
q-5 -26 -16 -61q-12 -40 -33 -68h-651q-134 0 -192 -63q-58 -62 -58 -162z" />
    <glyph glyph-name="uniFE9F" unicode="&#x62c;" horiz-adv-x="1513" arabic-form="initial" 
d="M535 -195h290v-239h-290v239zM-45 45v152q0 18 13 31q14 14 32 14h1102q-2 12 -7.5 35t-7.5 34q-2 9 -6 32.5t-7 36.5q-5 25 -11 75q-22 149 -117 236t-229 87q-62 0 -119 -21q-55 -20 -103 -56q-49 -37 -77 -78q-32 -48 -39 -91h-262q6 103 57 190q50 84 134 149
q81 62 189 99q105 36 220 36q151 0 262 -43q113 -44 191 -119q79 -76 125 -180q47 -106 59 -228q5 -43 12 -105t8 -76q8 -59 17 -113q5 -29 14 -74q8 -38 16 -68h-1421q-19 0 -32 13t-13 32z" />
    <glyph glyph-name="uniFEA0" unicode="&#x62c;" horiz-adv-x="1611" arabic-form="medial" 
d="M557 -195h291v-239h-291v239zM0 0q-43 0 -43 23v190q0 21 13 25q12 4 30 4h1061v247q0 74 -30 128q-31 56 -79 91t-111 53q-60 17 -130 17q-64 0 -121 -20q-60 -21 -107 -56q-49 -36 -79 -78q-31 -43 -39 -92h-263q6 100 60 190q51 84 137 149q84 63 189 99t221 36
q148 0 269 -50q122 -51 203 -134q85 -88 127 -195q44 -112 44 -234q0 -50 20 -79t51 -46q30 -16 70 -21q43 -5 76 -5h43q17 0 29 -4q14 -5 14 -25v-190q0 -23 -43 -23h-43q-29 0 -61 9q-29 8 -61 26q-29 16 -53 40t-36 54h-8q-3 -16 -17 -61q-12 -40 -33 -68h-1300z" />
    <glyph glyph-name="uniFEA2" unicode="&#x62d;" horiz-adv-x="1560" arabic-form="final" 
d="M328 -225q0 -78 19 -134q18 -52 67 -128h-277q-42 53 -68 116q-28 68 -28 152q0 95 30 177q30 83 90 146q61 64 153 101t221 37h454v247q0 149 -81 219q-80 70 -216 70q-63 0 -110 -20q-48 -20 -85 -56q-37 -35 -59 -78t-30 -92h-263q6 100 51 190q43 86 115 149t168 99
t211 36q148 0 260 -47q115 -48 185 -124q73 -79 109 -186t36 -225q0 -54 19 -88q18 -33 52 -55q32 -21 70 -30q39 -9 76 -9h64q17 0 29 -4q14 -5 14 -25v-190q0 -23 -43 -23h-64q-29 0 -60 9t-62 26q-29 16 -53 40t-36 54h-8q-5 -26 -16 -61q-12 -40 -33 -68h-651
q-134 0 -192 -63q-58 -62 -58 -162z" />
    <glyph glyph-name="uniFEA3" unicode="&#x62d;" horiz-adv-x="1513" arabic-form="initial" 
d="M-45 45v152q0 18 13 31q14 14 32 14h1102q-2 12 -7.5 35t-7.5 34q-2 9 -6 32.5t-7 36.5q-5 25 -11 75q-22 149 -117 236t-229 87q-62 0 -119 -21q-55 -20 -103 -56q-49 -37 -77 -78q-32 -48 -39 -91h-262q6 103 57 190q50 84 134 149q81 62 189 99q105 36 220 36
q151 0 262 -43q113 -44 191 -119q79 -76 125 -180q47 -106 59 -228q5 -43 12 -105t8 -76q8 -59 17 -113q5 -29 14 -74q8 -38 16 -68h-1421q-19 0 -32 13t-13 32z" />
    <glyph glyph-name="uniFEA4" unicode="&#x62d;" horiz-adv-x="1611" arabic-form="medial" 
d="M0 0q-43 0 -43 23v190q0 21 13 25q12 4 30 4h1061v247q0 74 -30 128q-31 56 -79 91t-111 53q-60 17 -130 17q-64 0 -121 -20q-60 -21 -107 -56q-49 -36 -79 -78q-31 -43 -39 -92h-263q6 100 60 190q51 84 137 149q84 63 189 99t221 36q148 0 269 -50q122 -51 203 -134
q85 -88 127 -195q44 -112 44 -234q0 -50 20 -79t51 -46q30 -16 70 -21q43 -5 76 -5h43q17 0 29 -4q14 -5 14 -25v-190q0 -23 -43 -23h-43q-29 0 -61 9q-29 8 -61 26q-29 16 -53 40t-36 54h-8q-3 -16 -17 -61q-12 -40 -33 -68h-1300z" />
    <glyph glyph-name="uniFEA6" unicode="&#x62e;" horiz-adv-x="1560" arabic-form="final" 
d="M553 1464h291v-239h-291v239zM328 -225q0 -78 19 -134q18 -52 67 -128h-277q-42 53 -68 116q-28 68 -28 152q0 95 30 177q30 83 90 146q61 64 153 101t221 37h454v247q0 149 -81 219q-80 70 -216 70q-63 0 -110 -20q-48 -20 -85 -56q-37 -35 -59 -78t-30 -92h-263
q6 100 51 190q43 86 115 149t168 99t211 36q148 0 260 -47q115 -48 185 -124q73 -79 109 -186t36 -225q0 -54 19 -88q18 -33 52 -55q32 -21 70 -30q39 -9 76 -9h64q17 0 29 -4q14 -5 14 -25v-190q0 -23 -43 -23h-64q-29 0 -60 9t-62 26q-29 16 -53 40t-36 54h-8
q-5 -26 -16 -61q-12 -40 -33 -68h-651q-134 0 -192 -63q-58 -62 -58 -162z" />
    <glyph glyph-name="uniFEA7" unicode="&#x62e;" horiz-adv-x="1513" arabic-form="initial" 
d="M590 1464h291v-239h-291v239zM-45 45v152q0 18 13 31q14 14 32 14h1102q-2 12 -7.5 35t-7.5 34q-2 9 -6 32.5t-7 36.5q-5 25 -11 75q-22 149 -117 236t-229 87q-62 0 -119 -21q-55 -20 -103 -56q-49 -37 -77 -78q-32 -48 -39 -91h-262q6 103 57 190q50 84 134 149
q81 62 189 99q105 36 220 36q151 0 262 -43q113 -44 191 -119q79 -76 125 -180q47 -106 59 -228q5 -43 12 -105t8 -76q8 -59 17 -113q5 -29 14 -74q8 -38 16 -68h-1421q-19 0 -32 13t-13 32z" />
    <glyph glyph-name="uniFEA8" unicode="&#x62e;" horiz-adv-x="1611" arabic-form="medial" 
d="M588 1466h291v-239h-291v239zM0 0q-43 0 -43 23v190q0 21 13 25q12 4 30 4h1061v247q0 74 -30 128q-31 56 -79 91t-111 53q-60 17 -130 17q-64 0 -121 -20q-60 -21 -107 -56q-49 -36 -79 -78q-31 -43 -39 -92h-263q6 100 60 190q51 84 137 149q84 63 189 99t221 36
q148 0 269 -50q122 -51 203 -134q85 -88 127 -195q44 -112 44 -234q0 -50 20 -79t51 -46q30 -16 70 -21q43 -5 76 -5h43q17 0 29 -4q14 -5 14 -25v-190q0 -23 -43 -23h-43q-29 0 -61 9q-29 8 -61 26q-29 16 -53 40t-36 54h-8q-3 -16 -17 -61q-12 -40 -33 -68h-1300z" />
    <glyph glyph-name="uniFEAA" unicode="&#x62f;" horiz-adv-x="1161" arabic-form="final" 
d="M1161 242q18 0 30 -4q13 -4 13 -25v-190q0 -23 -43 -23h-43q-28 0 -60 9q-31 9 -62 26q-29 16 -53 40t-36 54h-8q-5 -26 -16 -61q-12 -40 -33 -68h-799v242h557v164q0 73 -18 136q-18 62 -52 107q-36 47 -81 70q-47 24 -105 24h-211v228h211q111 0 212 -32
q99 -31 174 -96t119 -164q44 -100 44 -239v-41q1 -49 23 -80q21 -30 51 -48q28 -17 68 -23q37 -6 75 -6h43z" />
    <glyph glyph-name="uniFEAC" unicode="&#x630;" horiz-adv-x="1161" arabic-form="final" 
d="M172 1464h291v-239h-291v239zM1161 242q18 0 30 -4q13 -4 13 -25v-190q0 -23 -43 -23h-43q-28 0 -60 9q-31 9 -62 26q-29 16 -53 40t-36 54h-8q-5 -26 -16 -61q-12 -40 -33 -68h-799v242h557v164q0 73 -18 136q-18 62 -52 107q-36 47 -81 70q-47 24 -105 24h-211v228h211
q111 0 212 -32q99 -31 174 -96t119 -164q44 -100 44 -239v-41q1 -49 23 -80q21 -30 51 -48q28 -17 68 -23q37 -6 75 -6h43z" />
    <glyph glyph-name="uniFEAE" unicode="&#x631;" horiz-adv-x="847" arabic-form="final" 
d="M848 242q18 0 30 -4q13 -4 13 -25v-190q0 -23 -43 -23h-43q-29 0 -61 9q-29 8 -61 26q-30 16 -52 40q-23 25 -35 54h-8v-96q0 -115 -20 -212q-20 -95 -63 -164t-118 -107q-73 -37 -184 -37q-44 0 -95 8q-50 8 -88 24v211q24 -16 54 -21q32 -5 63 -5q89 0 123 74
q35 76 35 229v839h293v-462q0 -54 19 -86q20 -35 51 -52q31 -18 71 -24q39 -6 76 -6h43z" />
    <glyph glyph-name="uniFEB0" unicode="&#x632;" horiz-adv-x="847" arabic-form="final" 
d="M315 1464h291v-239h-291v239zM848 242q18 0 30 -4q13 -4 13 -25v-190q0 -23 -43 -23h-43q-29 0 -61 9q-29 8 -61 26q-30 16 -52 40q-23 25 -35 54h-8v-96q0 -115 -20 -212q-20 -95 -63 -164t-118 -107q-73 -37 -184 -37q-44 0 -95 8q-50 8 -88 24v211q24 -16 54 -21
q32 -5 63 -5q89 0 123 74q35 76 35 229v839h293v-462q0 -54 19 -86q20 -35 51 -52q31 -18 71 -24q39 -6 76 -6h43z" />
    <glyph glyph-name="uniFEB2" unicode="&#x633;" horiz-adv-x="3121" arabic-form="final" 
d="M852 -487q-244 0 -395 68q-155 70 -241 187q-87 119 -120 276q-33 159 -33 339v147h277v-147q0 -169 30 -288q30 -117 92 -193q62 -75 159 -110q95 -34 227 -34q130 0 223 34q95 35 157 110q62 76 92 193q30 119 30 288v403h290v-411q0 -78 47 -111t121 -33q76 0 113 33
t37 111v454h291v-454q0 -78 46 -111q47 -33 122 -33t112 33t37 111v497h291v-487q0 -77 31 -111q29 -32 84 -32h149q18 0 30 -4q13 -4 13 -25v-190q0 -23 -43 -23h-94q-29 0 -60 9t-62 26q-29 16 -53 40t-36 54h-8q-46 -69 -123 -102t-191 -33q-109 0 -187 38q-77 38 -99 97
h-8q-46 -69 -123 -102t-191 -33q-90 0 -157 29q-68 29 -101 71h-8q-22 -122 -75 -229q-53 -108 -143 -186t-226 -122q-137 -44 -324 -44z" />
    <glyph glyph-name="uniFEB3" unicode="&#x633;" horiz-adv-x="1900" arabic-form="initial" 
d="M248 791h291v-414q0 -78 46 -111q47 -33 122 -33t112 33t37 111v452h291v-444q0 -77 31 -111q29 -32 84 -32h223v630h293v-872h-461q-29 0 -61 9q-29 8 -61 26q-29 16 -53 40t-36 54h-8q-46 -69 -123 -102t-191 -33q-109 0 -187 38q-77 38 -99 97h-9q-2 -14 -19 -34
q-21 -24 -45 -43q-29 -22 -64 -37q-36 -15 -74 -15h-289q-43 0 -43 23v190q0 21 13 25q12 4 30 4h135q55 0 84 32q31 34 31 111v406z" />
    <glyph glyph-name="uniFEB4" unicode="&#x633;" horiz-adv-x="2021" arabic-form="medial" 
d="M1395 -6q-110 0 -188 38q-77 38 -99 97h-8q-46 -69 -123 -102q-76 -33 -191 -33q-109 0 -187 38q-77 38 -99 97h-8q-2 -12 -20 -34q-21 -24 -45 -43q-30 -23 -63 -37q-36 -15 -75 -15h-289q-43 0 -43 23v190q0 21 13 25q12 4 30 4h135q55 0 84 32q31 34 31 111v406h291
v-416q0 -78 46 -111q47 -33 122 -33t112 33t37 111v454h291v-454q0 -78 46 -111t122 -33q75 0 113 33q36 32 36 111v497h291v-487q0 -77 31 -111q29 -32 84 -32h149q18 0 30 -4q13 -4 13 -25v-190q0 -23 -43 -23h-94q-29 0 -60 9t-62 26q-29 16 -53 40t-36 54h-8
q-46 -69 -123 -102t-190 -33z" />
    <glyph glyph-name="uniFEB6" unicode="&#x634;" horiz-adv-x="3121" arabic-form="final" 
d="M2009 1780h236v-234h-236v234zM2183 1464h236v-233h-236v233zM1835 1464h233v-233h-233v233zM852 -487q-244 0 -395 68q-155 70 -241 187q-87 119 -120 276q-33 159 -33 339v147h277v-147q0 -169 30 -288q30 -117 92 -193q62 -75 159 -110q95 -34 227 -34q130 0 223 34
q95 35 157 110q62 76 92 193q30 119 30 288v403h290v-411q0 -78 47 -111t121 -33q76 0 113 33t37 111v454h291v-454q0 -78 46 -111q47 -33 122 -33t112 33t37 111v497h291v-487q0 -77 31 -111q29 -32 84 -32h149q18 0 30 -4q13 -4 13 -25v-190q0 -23 -43 -23h-94
q-29 0 -60 9t-62 26q-29 16 -53 40t-36 54h-8q-46 -69 -123 -102t-191 -33q-109 0 -187 38q-77 38 -99 97h-8q-46 -69 -123 -102t-191 -33q-90 0 -157 29q-68 29 -101 71h-8q-22 -122 -75 -229q-53 -108 -143 -186t-226 -122q-137 -44 -324 -44z" />
    <glyph glyph-name="uniFEB7" unicode="&#x634;" horiz-adv-x="1900" arabic-form="initial" 
d="M879 1780h235v-234h-235v234zM1053 1464h235v-233h-235v233zM705 1464h233v-233h-233v233zM248 791h291v-414q0 -78 46 -111q47 -33 122 -33t112 33t37 111v452h291v-444q0 -77 31 -111q29 -32 84 -32h223v630h293v-872h-461q-29 0 -61 9q-29 8 -61 26q-29 16 -53 40
t-36 54h-8q-46 -69 -123 -102t-191 -33q-109 0 -187 38q-77 38 -99 97h-9q-2 -14 -19 -34q-21 -24 -45 -43q-29 -22 -64 -37q-36 -15 -74 -15h-289q-43 0 -43 23v190q0 21 13 25q12 4 30 4h135q55 0 84 32q31 34 31 111v406z" />
    <glyph glyph-name="uniFEB8" unicode="&#x634;" horiz-adv-x="2021" arabic-form="medial" 
d="M874 1780h236v-234h-236v234zM1049 1464h235v-233h-235v233zM700 1464h234v-233h-234v233zM1395 -6q-110 0 -188 38q-77 38 -99 97h-8q-46 -69 -123 -102q-76 -33 -191 -33q-109 0 -187 38q-77 38 -99 97h-8q-2 -12 -20 -34q-21 -24 -45 -43q-30 -23 -63 -37
q-36 -15 -75 -15h-289q-43 0 -43 23v190q0 21 13 25q12 4 30 4h135q55 0 84 32q31 34 31 111v406h291v-416q0 -78 46 -111q47 -33 122 -33t112 33t37 111v454h291v-454q0 -78 46 -111t122 -33q75 0 113 33q36 32 36 111v497h291v-487q0 -77 31 -111q29 -32 84 -32h149
q18 0 30 -4q13 -4 13 -25v-190q0 -23 -43 -23h-94q-29 0 -60 9t-62 26q-29 16 -53 40t-36 54h-8q-46 -69 -123 -102t-190 -33z" />
    <glyph glyph-name="uniFEBA" unicode="&#x635;" horiz-adv-x="3217" arabic-form="final" 
d="M2384 719q-90 0 -174 -33q-85 -33 -158 -84q-77 -53 -135 -110t-108 -113q-40 -45 -73 -91q-26 -37 -32 -46h962v254q0 116 -75 169q-77 54 -207 54zM2390 961q115 0 220 -29q102 -28 180 -86q76 -57 122 -144q45 -86 45 -200v-72q0 -52 20 -89q19 -36 51 -57
q32 -22 71 -32q37 -10 75 -10h43q18 0 30 -4q13 -4 13 -25v-190q0 -23 -43 -23h-43q-28 0 -60 9q-29 8 -61 26q-31 17 -54 40q-24 24 -36 54h-8q-5 -26 -16 -61q-12 -40 -33 -68h-1307q-33 -112 -90 -200t-146 -153q-90 -66 -215 -100q-124 -34 -296 -34q-244 0 -395 68
q-155 70 -241 187q-87 119 -120 276q-33 159 -33 339v147h277v-147q0 -169 30 -288q30 -117 92 -193q62 -75 159 -110q95 -34 227 -34q130 0 223 34q95 35 157 110q62 76 92 193q30 119 30 288v432h278v-326h8q65 83 151 170q82 83 178 152q97 69 203 109q109 41 222 41z
" />
    <glyph glyph-name="uniFEBB" unicode="&#x635;" horiz-adv-x="1908" arabic-form="initial" 
d="M1243 719q-90 0 -174 -33q-85 -33 -158 -84q-77 -53 -135 -110q-51 -50 -107 -113q-45 -51 -74 -91q-26 -37 -32 -46h963v254q0 130 -76 176q-77 47 -207 47zM209 242v573h278v-326h9q70 88 150 170q82 83 178 152q97 69 203 109q109 41 222 41q114 0 220 -26
q105 -26 181 -81q78 -56 122 -142q45 -87 45 -210v-502h-1817q-43 0 -43 23v190q0 21 13 25q12 4 30 4h209z" />
    <glyph glyph-name="uniFEBC" unicode="&#x635;" horiz-adv-x="2078" arabic-form="medial" 
d="M0 0q-43 0 -43 23v190q0 21 13 25q12 4 30 4h211v573h278v-326h9q70 88 150 170q82 83 178 152q97 69 203 109q109 41 222 41q114 0 220 -26q105 -26 181 -81q78 -56 122 -142q45 -87 45 -210v-72q0 -54 19 -89q20 -36 51 -57q32 -22 71 -32q37 -10 76 -10h43q17 0 29 -4
q14 -5 14 -25v-190q0 -23 -43 -23h-43q-30 0 -61 9q-29 8 -61 26q-29 16 -53 40t-36 54h-8q-3 -16 -17 -61q-12 -40 -33 -68h-1767zM1245 719q-90 0 -174 -33q-85 -33 -158 -84q-77 -53 -135 -110q-51 -50 -107 -113q-45 -51 -74 -91q-26 -37 -32 -46h963v254q0 130 -76 176
q-77 47 -207 47z" />
    <glyph glyph-name="uniFEBE" unicode="&#x636;" horiz-adv-x="3217" arabic-form="final" 
d="M1632 1464h291v-239h-291v239zM2384 719q-90 0 -174 -33q-85 -33 -158 -84q-77 -53 -135 -110t-108 -113q-40 -45 -73 -91q-26 -37 -32 -46h962v254q0 116 -75 169q-77 54 -207 54zM2390 961q115 0 220 -29q102 -28 180 -86q76 -57 122 -144q45 -86 45 -200v-72
q0 -52 20 -89q19 -36 51 -57q32 -22 71 -32q37 -10 75 -10h43q18 0 30 -4q13 -4 13 -25v-190q0 -23 -43 -23h-43q-28 0 -60 9q-29 8 -61 26q-31 17 -54 40q-24 24 -36 54h-8q-5 -26 -16 -61q-12 -40 -33 -68h-1307q-33 -112 -90 -200t-146 -153q-90 -66 -215 -100
q-124 -34 -296 -34q-244 0 -395 68q-155 70 -241 187q-87 119 -120 276q-33 159 -33 339v147h277v-147q0 -169 30 -288q30 -117 92 -193q62 -75 159 -110q95 -34 227 -34q130 0 223 34q95 35 157 110q62 76 92 193q30 119 30 288v432h278v-326h8q65 83 151 170
q82 83 178 152q97 69 203 109q109 41 222 41z" />
    <glyph glyph-name="uniFEBF" unicode="&#x636;" horiz-adv-x="1910" arabic-form="initial" 
d="M487 1407h291v-240h-291v240zM1245 719q-90 0 -174 -33q-85 -33 -158 -84q-77 -53 -135 -110q-51 -50 -107 -113q-45 -51 -74 -91q-26 -37 -32 -46h963v254q0 130 -76 176q-77 47 -207 47zM211 242v573h278v-326h9q70 88 150 170q82 83 178 152q97 69 203 109
q109 41 222 41q114 0 220 -26q105 -26 181 -81q78 -56 122 -142q45 -87 45 -210v-502h-1817q-43 0 -43 23v190q0 21 13 25q12 4 30 4h209z" />
    <glyph glyph-name="uniFEC0" unicode="&#x636;" horiz-adv-x="2078" arabic-form="medial" 
d="M487 1407h291v-240h-291v240zM0 0q-43 0 -43 23v190q0 21 13 25q12 4 30 4h211v573h278v-326h9q70 88 150 170q82 83 178 152q97 69 203 109q109 41 222 41q114 0 220 -26q105 -26 181 -81q78 -56 122 -142q45 -87 45 -210v-72q0 -54 19 -89q20 -36 51 -57q32 -22 71 -32
q37 -10 76 -10h43q17 0 29 -4q14 -5 14 -25v-190q0 -23 -43 -23h-43q-30 0 -61 9q-29 8 -61 26q-29 16 -53 40t-36 54h-8q-3 -16 -17 -61q-12 -40 -33 -68h-1767zM1245 719q-90 0 -174 -33q-85 -33 -158 -84q-77 -53 -135 -110q-51 -50 -107 -113q-45 -51 -74 -91
q-26 -37 -32 -46h963v254q0 130 -76 176q-77 47 -207 47z" />
    <glyph glyph-name="uniFEC2" unicode="&#x637;" horiz-adv-x="2007" arabic-form="final" 
d="M2007 242q18 0 30 -4q13 -4 13 -25v-190q0 -23 -43 -23h-43q-28 0 -60 9q-31 9 -62 26q-29 16 -53 40t-36 54h-8q-5 -26 -16 -61q-12 -40 -33 -68h-1655v242h154v1222h258v-940h8q66 82 145 160q77 75 170 139t192 100q103 38 212 38q116 0 220 -33q102 -32 180 -97
q78 -64 122 -157q45 -94 45 -217v-27q0 -54 19 -89t52 -57t70 -32t76 -10h43zM1171 719q-89 0 -171 -33q-81 -32 -156 -83q-74 -50 -136 -109q-57 -54 -109 -113q-47 -53 -74 -92q-30 -43 -33 -47h962v211q0 128 -76 197t-207 69z" />
    <glyph glyph-name="uniFEC3" unicode="&#x637;" horiz-adv-x="1796" arabic-form="initial" 
d="M1128 719q-90 0 -173 -33t-156 -84q-76 -52 -136 -110q-57 -54 -109 -113q-45 -51 -74 -91q-20 -28 -31 -46h962v211q0 128 -76 197q-77 69 -207 69zM152 242v1222h258v-940h8q66 82 145 160q77 75 170 139t192 100q103 38 212 38q117 0 220 -33q102 -32 180 -97
q78 -64 122 -157q45 -94 45 -217v-457h-1706q-43 0 -43 23v190q0 21 13 25q12 4 30 4h154z" />
    <glyph glyph-name="uniFEC4" unicode="&#x637;" horiz-adv-x="1966" arabic-form="medial" 
d="M1130 719q-88 0 -172 -33q-83 -33 -157 -84q-76 -52 -136 -110q-57 -54 -109 -113q-45 -51 -74 -91q-20 -28 -31 -46h962v211q0 128 -76 197q-77 69 -207 69zM154 242v1222h258v-940h8q66 82 145 160q77 75 170 139t192 100q103 38 212 38q117 0 220 -33q102 -32 180 -97
q78 -64 122 -157q45 -94 45 -217v-27q0 -54 19 -89t52 -57t70 -32t76 -10h43q18 0 30 -4q13 -4 13 -25v-190q0 -23 -43 -23h-43q-29 0 -60 9t-62 26q-30 16 -52 40q-23 25 -35 54h-8q-6 -28 -17 -61q-14 -41 -34 -68h-1655q-43 0 -43 23v190q0 21 13 25q12 4 30 4h154z" />
    <glyph glyph-name="uniFEC6" unicode="&#x638;" horiz-adv-x="2007" arabic-form="final" 
d="M760 1407h291v-240h-291v240zM2007 242q18 0 30 -4q13 -4 13 -25v-190q0 -23 -43 -23h-43q-28 0 -60 9q-31 9 -62 26q-29 16 -53 40t-36 54h-8q-5 -26 -16 -61q-12 -40 -33 -68h-1655v242h154v1222h258v-940h8q66 82 145 160q77 75 170 139t192 100q103 38 212 38
q116 0 220 -33q102 -32 180 -97q78 -64 122 -157q45 -94 45 -217v-27q0 -54 19 -89t52 -57t70 -32t76 -10h43zM1171 719q-89 0 -171 -33q-81 -32 -156 -83q-74 -50 -136 -109q-57 -54 -109 -113q-47 -53 -74 -92q-30 -43 -33 -47h962v211q0 128 -76 197t-207 69z" />
    <glyph glyph-name="uniFEC7" unicode="&#x638;" horiz-adv-x="1796" arabic-form="initial" 
d="M717 1407h291v-240h-291v240zM1128 719q-90 0 -173 -33t-156 -84q-76 -52 -136 -110q-57 -54 -109 -113q-45 -51 -74 -91q-20 -28 -31 -46h962v211q0 128 -76 197q-77 69 -207 69zM152 242v1222h258v-940h8q66 82 145 160q77 75 170 139t192 100q103 38 212 38
q117 0 220 -33q102 -32 180 -97q78 -64 122 -157q45 -94 45 -217v-457h-1706q-43 0 -43 23v190q0 21 13 25q12 4 30 4h154z" />
    <glyph glyph-name="uniFEC8" unicode="&#x638;" horiz-adv-x="1966" arabic-form="medial" 
d="M721 1407h291v-240h-291v240zM1130 719q-88 0 -172 -33q-83 -33 -157 -84q-76 -52 -136 -110q-57 -54 -109 -113q-45 -51 -74 -91q-20 -28 -31 -46h962v211q0 128 -76 197q-77 69 -207 69zM154 242v1222h258v-940h8q66 82 145 160q77 75 170 139t192 100q103 38 212 38
q117 0 220 -33q102 -32 180 -97q78 -64 122 -157q45 -94 45 -217v-27q0 -54 19 -89t52 -57t70 -32t76 -10h43q18 0 30 -4q13 -4 13 -25v-190q0 -23 -43 -23h-43q-29 0 -60 9t-62 26q-30 16 -52 40q-23 25 -35 54h-8q-6 -28 -17 -61q-14 -41 -34 -68h-1655q-43 0 -43 23v190
q0 21 13 25q12 4 30 4h154z" />
    <glyph glyph-name="uniFECA" unicode="&#x639;" horiz-adv-x="1533" arabic-form="final" 
d="M578 0q-68 0 -113 -19q-47 -20 -78 -52t-45 -71q-14 -38 -14 -83q0 -78 19 -134q18 -52 67 -128h-277q-42 53 -68 116q-28 68 -28 152q0 78 29 159q28 77 86 143q55 63 144 107q88 44 204 50v8q-49 51 -90 140q-38 83 -81 185q-51 120 -83 187q-45 93 -98 143v37h835
q92 0 163 -20q73 -21 127 -65q51 -42 82 -115q30 -70 30 -169q0 -27 -5 -69t-18 -77q-16 -44 -44 -84q-33 -48 -79 -91v-10h72q63 0 95 1t85 1h39q18 0 30 -4q13 -4 13 -25v-190q0 -23 -43 -23h-956zM827 229q62 0 112 35q51 36 85 87q34 53 54 114q20 63 20 115
q0 66 -49 96q-51 31 -117 31h-402q23 -21 41 -65q19 -47 38 -97q5 -13 18.5 -50.5t21.5 -58.5q21 -55 46 -101q24 -45 59 -76q33 -30 73 -30z" />
    <glyph glyph-name="uniFECB" unicode="&#x639;" horiz-adv-x="1261" arabic-form="initial" 
d="M322 242v8q-40 40 -75 116q-34 74 -34 164q0 101 27 188q27 88 86 151q61 66 154 101q95 36 235 36q212 0 320 -108q107 -107 134 -304h-258q-18 85 -68 135q-49 49 -128 49q-108 0 -161 -65q-54 -66 -54 -183q0 -141 53 -215q52 -73 178 -73h449v-242h-1182
q-43 0 -43 23v190q0 21 13 25q12 4 30 4h324z" />
    <glyph glyph-name="uniFECC" unicode="&#x639;" horiz-adv-x="1509" arabic-form="medial" 
d="M803 229q61 0 111 35q51 36 85 87q36 55 55 114q19 60 19 115q0 66 -49 96q-51 31 -117 31h-401q23 -21 41 -65q19 -47 38 -97q5 -13 18.5 -50.5t21.5 -58.5q21 -55 46 -101t58 -76t74 -30zM473 242v8q-50 50 -91 139q-42 91 -78 184q-37 96 -80 187q-43 92 -97 143v37
h836q91 0 162 -20q73 -21 127 -65q51 -42 82 -115q30 -70 30 -169q0 -74 -28 -155q-27 -77 -117 -166v-10h71q63 0 95 1t85 1h39q18 0 30 -4q13 -4 13 -25v-190q0 -23 -43 -23h-1509q-43 0 -43 23v190q0 21 13 25q12 4 30 4h473z" />
    <glyph glyph-name="uniFECE" unicode="&#x63a;" horiz-adv-x="1533" arabic-form="final" 
d="M578 0q-68 0 -113 -19q-47 -20 -78 -52t-45 -71q-14 -38 -14 -83q0 -78 19 -134q18 -52 67 -128h-277q-42 53 -68 116q-28 68 -28 152q0 78 29 159q28 77 86 143q55 63 144 107q88 44 204 50v8q-49 51 -90 140q-38 83 -81 185q-51 120 -83 187q-45 93 -98 143v37h835
q92 0 163 -20q73 -21 127 -65q51 -42 82 -115q30 -70 30 -169q0 -27 -5 -69t-18 -77q-16 -44 -44 -84q-33 -48 -79 -91v-10h72q63 0 95 1t85 1h39q18 0 30 -4q13 -4 13 -25v-190q0 -23 -43 -23h-956zM827 229q62 0 112 35q51 36 85 87q34 53 54 114q20 63 20 115
q0 66 -49 96q-51 31 -117 31h-402q23 -21 41 -65q19 -47 38 -97q5 -13 18.5 -50.5t21.5 -58.5q21 -55 46 -101q24 -45 59 -76q33 -30 73 -30zM684 1464h291v-239h-291v239z" />
    <glyph glyph-name="uniFECF" unicode="&#x63a;" horiz-adv-x="1261" arabic-form="initial" 
d="M563 1464h291v-239h-291v239zM322 242v8q-40 40 -75 116q-34 74 -34 164q0 101 27 188q27 88 86 151q61 66 154 101q95 36 235 36q212 0 320 -108q107 -107 134 -304h-258q-18 85 -68 135q-49 49 -128 49q-108 0 -161 -65q-54 -66 -54 -183q0 -141 53 -215
q52 -73 178 -73h449v-242h-1182q-43 0 -43 23v190q0 21 13 25q12 4 30 4h324z" />
    <glyph glyph-name="uniFED0" unicode="&#x63a;" horiz-adv-x="1509" arabic-form="medial" 
d="M803 229q61 0 111 35q51 36 85 87q36 55 55 114q19 60 19 115q0 66 -49 96q-51 31 -117 31h-401q23 -21 41 -65q19 -47 38 -97q5 -13 18.5 -50.5t21.5 -58.5q21 -55 46 -101t58 -76t74 -30zM473 242v8q-50 50 -91 139q-42 91 -78 184q-37 96 -80 187q-43 92 -97 143v37
h836q91 0 162 -20q73 -21 127 -65q51 -42 82 -115q30 -70 30 -169q0 -74 -28 -155q-27 -77 -117 -166v-10h71q63 0 95 1t85 1h39q18 0 30 -4q13 -4 13 -25v-190q0 -23 -43 -23h-1509q-43 0 -43 23v190q0 21 13 25q12 4 30 4h473zM651 1464h291v-239h-291v239z" />
    <glyph glyph-name="uniFED2" unicode="&#x641;" horiz-adv-x="2320" arabic-form="final" 
d="M1540 1464h291v-239h-291v239zM2320 242q18 0 30 -4q13 -4 13 -25v-190q0 -23 -43 -23h-1865q-87 0 -162 29q-74 29 -128 87t-84 147t-30 210v137h258v-108q0 -62 9 -110q9 -47 33 -82q23 -33 64 -51q38 -17 99 -17h735v8q-48 45 -81 111t-33 141q0 124 40 216
q42 96 111 158q71 64 169 97t212 33q111 0 213 -31q97 -29 171 -94q73 -64 115 -158t42 -221q0 -70 -35 -140q-33 -66 -82 -112v-8h229zM1667 229q118 0 178 76q60 77 60 197q0 54 -16 107q-15 51 -45 88q-32 40 -74 60q-43 21 -103 21q-59 0 -103 -21q-42 -20 -74 -60
q-30 -37 -45 -88q-15 -50 -15 -107q0 -122 59 -197q60 -76 178 -76z" />
    <glyph glyph-name="uniFED3" unicode="&#x641;" horiz-adv-x="1298" arabic-form="initial" 
d="M530 1464h291v-239h-291v239zM440 502q0 -120 60 -197q60 -76 178 -76q57 0 103 22q45 22 74 58q30 38 45 86q15 50 15 107q0 58 -15 107q-15 51 -45 88q-32 40 -74 60q-43 21 -103 21t-104 -21q-41 -20 -73 -60q-30 -37 -45 -88q-16 -53 -16 -107zM260 242v8
q-48 45 -81 111q-34 68 -34 141q0 124 40 216q41 95 112 158q71 64 169 97t212 33q111 0 213 -31q97 -29 171 -94q73 -64 115 -158q42 -95 42 -221t-42 -221q-41 -92 -115 -157q-72 -63 -171 -93q-102 -31 -213 -31h-678q-43 0 -43 23v190q0 21 13 25q12 4 30 4h260z" />
    <glyph glyph-name="uniFED4" unicode="&#x641;" horiz-adv-x="1318" arabic-form="medial" 
d="M477 1464h291v-239h-291v239zM0 0q-43 0 -43 23v190q0 21 13 25q12 4 30 4h233v8q-46 43 -80 111t-34 141q0 124 40 216q42 96 111 158q71 64 169 97q97 33 212 33q111 0 213 -31q97 -29 171 -94q73 -64 115 -158q42 -95 42 -221q0 -70 -35 -140q-33 -66 -82 -112v-8h244
q18 0 30 -4q13 -4 13 -25v-190q0 -23 -43 -23h-1319zM651 229q118 0 178 76q60 77 60 197q0 54 -16 107q-15 51 -45 88q-32 40 -73 60q-43 21 -104 21q-59 0 -103 -21q-42 -20 -74 -60q-30 -37 -45 -88q-15 -49 -15 -107q0 -122 59 -197q60 -76 178 -76z" />
    </font>
</defs>
</svg>
